<?xml version="1.0" standalone="no"?>
<!DOCTYPE svg PUBLIC "-//W3C//DTD SVG 1.1//EN" "http://www.w3.org/Graphics/SVG/1.1/DTD/svg11.dtd" >
<svg xmlns="http://www.w3.org/2000/svg" xmlns:xlink="http://www.w3.org/1999/xlink" version="1.1">
<metadata>
Created by FontForge 20190801 at Wed Oct 30 07:11:40 2019
 By www-data
Copyright (c) 2019 by Daimler AG. All rights reserved.
</metadata>
<defs>
<font id="MBCorpoSTextOfficeRegular" horiz-adv-x="542" >
  <font-face 
    font-family="MBCorpoSTextOfficeRegular"
    font-weight="400"
    font-stretch="normal"
    units-per-em="1000"
    panose-1="2 11 5 4 5 0 0 0 0 4"
    ascent="824"
    descent="-176"
    x-height="494"
    cap-height="668"
    bbox="-615 -250 1137 998"
    underline-thickness="72"
    underline-position="-120"
    unicode-range="U+000D-FEFF"
  />
<missing-glyph horiz-adv-x="602" 
d="M491 795v-923l-8 -8h-365l-8 8v923l8 8h365zM126 787v-907h349v907h-349z" />
    <glyph glyph-name=".notdef" horiz-adv-x="602" 
d="M491 795v-923l-8 -8h-365l-8 8v923l8 8h365zM126 787v-907h349v907h-349z" />
    <glyph glyph-name=".null" horiz-adv-x="0" 
 />
    <glyph glyph-name="nonmarkingreturn" unicode="&#xd;" horiz-adv-x="243" 
 />
    <glyph glyph-name="space" unicode=" " horiz-adv-x="243" 
 />
    <glyph glyph-name="exclam" unicode="!" horiz-adv-x="268" 
d="M182 668v-146l-19 -322h-58l-18 322v146h95zM87.5 8.5q-18.5 18.5 -18.5 46.5t18 46t47 18t47 -18t18 -46t-18 -46.5t-47 -18.5q-28 0 -46.5 18.5z" />
    <glyph glyph-name="quotedbl" unicode="&#x22;" horiz-adv-x="400" 
d="M64 607v61h88v-61l-13 -174h-63zM243 607v61h88v-61l-13 -174h-63z" />
    <glyph glyph-name="numbersign" unicode="#" horiz-adv-x="558" 
d="M411 411l-19 -145h98v-68h-107l-26 -198h-72l26 198h-103l-26 -198h-71l25 198h-87v68h96l19 145h-97v69h106l24 188h72l-24 -188h103l24 188h72l-24 -188h89v-69h-98zM339 411h-103l-19 -145h103z" />
    <glyph glyph-name="dollar" unicode="$" 
d="M440.5 58.5q-48.5 -45.5 -127.5 -55.5v-91h-66v89q-57 4 -108 27.5t-90 65.5l47 57q31 -34 70.5 -53t80.5 -23v235l-35 15q-65 27 -102 68t-37 105q0 68 48 115.5t126 53.5v82h66v-84q93 -13 157 -76l-45 -59q-48 48 -112 60v-221l24 -10q67 -28 109.5 -69t42.5 -111
q0 -75 -48.5 -120.5zM182 439q23 -23 65 -42v194q-42 -6 -65 -30.5t-23 -59.5q0 -39 23 -62zM378 111q23 25 23 63q0 39 -22 63t-66 45v-204q42 8 65 33z" />
    <glyph glyph-name="percent" unicode="%" horiz-adv-x="800" 
d="M566 668h83l-411 -668h-81zM82.5 362q-43.5 50 -43.5 134t43.5 134t115.5 50t115.5 -50t43.5 -134t-43.5 -134t-115.5 -50t-115.5 50zM258.5 403.5q22.5 32.5 22.5 92.5t-22.5 93t-60.5 33q-39 0 -61 -32.5t-22 -93.5t22 -93t61 -32q38 0 60.5 32.5zM487 37
q-43 50 -43 134q0 85 43 134.5t115 49.5t115.5 -49.5t43.5 -134.5q0 -84 -43.5 -134t-115.5 -50t-115 50zM663 78q22 32 22 93t-22 93.5t-61 32.5q-38 0 -60 -32.5t-22 -93.5q0 -60 22 -92.5t60 -32.5q39 0 61 32z" />
    <glyph glyph-name="ampersand" unicode="&#x26;" horiz-adv-x="593" 
d="M470 0l-56 68q-68 -80 -172 -80q-57 0 -100 23t-66 61.5t-23 85.5q0 61 33 107t95 82l-8 10q-72 86 -72 158q0 50 22.5 87.5t61 57.5t84.5 20q43 0 79.5 -18.5t58.5 -52.5t22 -77q0 -57 -32.5 -102t-106.5 -91l131 -157q33 73 36 175h72q-6 -138 -58 -232l103 -125h-104z
M210 588q-25 -24 -25 -67q0 -55 52 -118l13 -16q60 37 81 71t21 68q0 39 -24 62.5t-57 23.5q-36 0 -61 -24zM371 123l-146 176q-85 -53 -85 -133q0 -46 30 -76.5t81 -30.5q70 0 120 64z" />
    <glyph glyph-name="quotesingle" unicode="'" horiz-adv-x="221" 
d="M67 607v61h88v-61l-13 -174h-63z" />
    <glyph glyph-name="parenleft" unicode="(" horiz-adv-x="319" 
d="M179.5 22.5q43.5 -105.5 117.5 -180.5l-55 -40q-189 187 -189 462t189 462l55 -40q-161 -163 -161 -422q0 -136 43.5 -241.5z" />
    <glyph glyph-name="parenright" unicode=")" horiz-adv-x="319" 
d="M22 686l55 40q189 -187 189 -462t-189 -462l-55 40q74 75 117.5 180.5t43.5 241.5q0 259 -161 422z" />
    <glyph glyph-name="asterisk" unicode="*" horiz-adv-x="421" 
d="M239 695v-117l108 39l19 -53l-110 -40l77 -97l-46 -34l-77 98l-75 -99l-47 35l76 97l-109 40l19 53l108 -39v117h57z" />
    <glyph glyph-name="plus" unicode="+" 
d="M504 265h-196v-205h-77v205h-193v73h193v205h77v-205h196v-73z" />
    <glyph glyph-name="comma" unicode="," horiz-adv-x="256" 
d="M177.5 99q18.5 -24 18.5 -64q0 -57 -26 -111.5t-65 -100.5l-43 29q23 24 45.5 64t25.5 74h-9q-27 0 -45 19t-18 47q0 30 18 48.5t46 18.5q34 0 52.5 -24z" />
    <glyph glyph-name="hyphen" unicode="-" horiz-adv-x="381" 
d="M72 316h236v-72h-236v72z" />
    <glyph glyph-name="period" unicode="." horiz-adv-x="248" 
d="M77.5 9q-18.5 19 -18.5 48t18 47.5t47 18.5t47.5 -18.5t18.5 -47.5t-18.5 -48t-47.5 -19q-28 0 -46.5 19z" />
    <glyph glyph-name="slash" unicode="/" horiz-adv-x="411" 
d="M383 668l-282 -763h-75l282 763h75z" />
    <glyph glyph-name="zero" unicode="0" 
d="M150.5 26q-53.5 38 -84 115.5t-30.5 192.5t30.5 192.5t84 115.5t120.5 38t120 -38t83.5 -115.5t30.5 -192.5t-30.5 -192.5t-83.5 -115.5t-120 -38t-120.5 38zM375 129.5q38 67.5 38 204.5t-38 204.5t-104 67.5t-104 -67.5t-38 -204.5t38 -204.5t104 -67.5t104 67.5z" />
    <glyph glyph-name="one" unicode="1" 
d="M475 73v-73h-380v73h153v449q-25 -15 -60 -21t-87 -7v71q87 3 122 27.5t43 75.5h70v-595h139z" />
    <glyph glyph-name="two" unicode="2" 
d="M56 71q131 106 199.5 173.5t97 121t28.5 111.5t-30 94t-85 36q-51 0 -83 -33.5t-32 -90.5h-86q0 59 26 104t72 69t104 24q62 0 108.5 -25.5t72 -71t25.5 -104.5q0 -69 -33 -130t-100 -125.5t-181 -149.5v-4q30 3 92 3h229v-73h-424v71z" />
    <glyph glyph-name="three" unicode="3" 
d="M444 296.5q41 -42.5 41 -113.5q0 -59 -30.5 -103t-83.5 -68t-117 -24q-70 0 -127 33.5t-85 98.5l66 29q51 -89 144 -89q63 0 103 34.5t40 95.5q0 66 -49 96t-109 30h-37v68h49q50 0 88 30.5t38 84.5q0 51 -32 80t-85 29q-44 0 -77.5 -24t-48.5 -62l-67 29q18 56 72 92.5
t124 36.5q55 0 101 -21t72.5 -60t26.5 -91q0 -58 -34 -96.5t-83 -53.5v-4q59 -15 100 -57.5z" />
    <glyph glyph-name="four" unicode="4" 
d="M507 144h-105v-144h-86v144h-285v83l255 441h116v-452h105v-72zM271 511l-170 -296h217v289q0 58 3 94h-4q-8 -18 -46 -87z" />
    <glyph glyph-name="five" unicode="5" 
d="M386 410q46 -25 73.5 -75t27.5 -120q0 -71 -32 -122.5t-83 -78t-108 -26.5q-78 0 -132.5 32.5t-82.5 91.5l64 35q26 -44 60 -65t86 -21q37 0 69 17.5t51 51.5t19 82q0 73 -38 112.5t-96 39.5q-78 0 -124 -66l-70 14l54 356h337v-73h-270l-31 -206h4q21 21 52 33.5
t69 12.5q55 0 101 -25z" />
    <glyph glyph-name="six" unicode="6" 
d="M398.5 406.5q45.5 -27.5 72.5 -77.5t27 -113q0 -67 -29.5 -119t-79 -80.5t-107.5 -28.5q-104 0 -167.5 78.5t-63.5 246.5q0 119 36 202t96 124t131 41q56 0 98 -19.5t71 -52.5l-44 -55q-51 55 -122 55q-76 0 -122.5 -66t-52.5 -196h4q17 37 56.5 62.5t97.5 25.5
q53 0 98.5 -27.5zM371.5 102q37.5 42 37.5 109t-37.5 108.5t-93.5 41.5t-93.5 -41.5t-37.5 -108.5t37.5 -109t93.5 -42t93.5 42z" />
    <glyph glyph-name="seven" unicode="7" 
d="M483 668v-75q-101 -104 -158 -248.5t-66 -344.5h-94q6 135 43 253.5t90 205t107 134.5v4q-60 -2 -91 -2h-257v73h426z" />
    <glyph glyph-name="eight" unicode="8" 
d="M457 274q37 -42 37 -102q0 -52 -27.5 -94t-78.5 -66t-120 -24q-64 0 -114 22.5t-77.5 62t-27.5 90.5q0 67 36 111.5t91 70.5v4q-45 24 -74.5 63t-29.5 95q0 50 26.5 89.5t72 61.5t102.5 22q55 0 100 -22t71 -61t26 -88q0 -55 -28.5 -97t-77.5 -67v-5q56 -24 93 -66z
M192.5 582.5q-31.5 -28.5 -31.5 -72.5q0 -43 30 -71t82 -53l24 -11q87 50 87 132q0 46 -32 75t-79 29q-49 0 -80.5 -28.5zM368.5 87.5q36.5 30.5 36.5 79.5q0 47 -40 78.5t-106 60.5l-15 7q-107 -57 -107 -146q0 -48 35.5 -79t96.5 -31q63 0 99.5 30.5z" />
    <glyph glyph-name="nine" unicode="9" 
d="M375.5 651.5q50.5 -28.5 79.5 -81.5t29 -124q0 -115 -76 -235t-197 -226l-68 40q151 131 214 267h-3q-39 -44 -115 -44q-55 0 -99.5 27t-70 75t-25.5 108q0 64 28.5 114.5t78.5 79t111 28.5q63 0 113.5 -28.5zM357.5 361q35.5 41 35.5 103t-35.5 103t-94.5 41t-94.5 -41
t-35.5 -103q0 -61 35.5 -102.5t94.5 -41.5t94.5 41z" />
    <glyph glyph-name="colon" unicode=":" horiz-adv-x="270" 
d="M88.5 390q-18.5 19 -18.5 48t18 47.5t47 18.5t47.5 -18.5t18.5 -47.5t-18.5 -48t-47.5 -19q-28 0 -46.5 19zM88.5 9q-18.5 19 -18.5 48t18 47.5t47 18.5t47.5 -18.5t18.5 -47.5t-18.5 -48t-47.5 -19q-28 0 -46.5 19z" />
    <glyph glyph-name="semicolon" unicode=";" horiz-adv-x="274" 
d="M185.5 99q18.5 -24 18.5 -64q0 -57 -26 -111.5t-65 -100.5l-43 29q23 24 45.5 64t25.5 74h-9q-27 0 -45 19t-18 47q0 30 18 48.5t46 18.5q34 0 52.5 -24zM91.5 390q-18.5 19 -18.5 48t18 47.5t47 18.5t47.5 -18.5t18.5 -47.5t-18.5 -48t-47.5 -19q-28 0 -46.5 19z" />
    <glyph glyph-name="less" unicode="&#x3c;" 
d="M469 460l-332 -159l332 -159v-82l-410 203v78l410 202v-83z" />
    <glyph glyph-name="equal" unicode="=" 
d="M49 441h444v-72h-444v72zM49 234h444v-72h-444v72z" />
    <glyph glyph-name="greater" unicode="&#x3e;" 
d="M483 341v-78l-410 -203v82l331 159l-331 159v83z" />
    <glyph glyph-name="question" unicode="?" horiz-adv-x="452" 
d="M315.5 658.5q43.5 -21.5 69 -63t25.5 -98.5q0 -68 -40.5 -120t-111.5 -79v-98h-82v145q71 19 104 59t33 92q0 48 -25 77t-73 29q-43 0 -68.5 -29.5t-25.5 -78.5h-88q0 85 51 135.5t136 50.5q52 0 95.5 -21.5zM264.5 104.5q18.5 -18.5 18.5 -47.5t-18.5 -48t-47.5 -19
q-28 0 -46.5 19t-18.5 48t18 47.5t47 18.5t47.5 -18.5z" />
    <glyph glyph-name="at" unicode="@" horiz-adv-x="893" 
d="M664 650.5q78 -46.5 122.5 -128t44.5 -180.5q0 -22 -3 -46q-9 -80 -39 -138t-74 -88t-93 -30t-75.5 23.5t-32.5 64.5h-3q-44 -77 -122 -77q-57 0 -94 45t-37 124q0 29 6 63q12 70 41 117t65.5 69.5t71.5 22.5q84 0 106 -82h4l13 70h80l-47 -264q-6 -30 -6 -55
q0 -26 10 -40t33 -14q24 0 49.5 21t44.5 65.5t25 110.5q1 12 1 36q0 85 -32 150.5t-93 102t-144 36.5q-92 0 -168 -46t-123 -128t-56 -188q-2 -28 -2 -40q0 -93 36 -164t105.5 -110.5t166.5 -39.5q60 0 114 13.5t93 35.5l25 -61q-98 -55 -239 -55q-111 0 -197 45.5t-134 130
t-48 197.5q0 25 3 52q12 127 72 224t153 149.5t201 52.5q98 0 176 -46.5zM480.5 153.5q30.5 35.5 44.5 110.5q6 32 6 58q0 48 -18.5 75t-50.5 27q-39 0 -69 -37t-42 -106q-7 -34 -7 -65q0 -48 17.5 -73t50.5 -25q38 0 68.5 35.5z" />
    <glyph glyph-name="A" unicode="A" horiz-adv-x="607" 
d="M431 170h-262l-54 -170h-88l225 668h103l225 -668h-95zM409 242l-87 275q-10 32 -18 71h-4q-7 -32 -20 -70l-88 -276h217z" />
    <glyph glyph-name="B" unicode="B" horiz-adv-x="597" 
d="M507.5 292.5q34.5 -41.5 34.5 -105.5q0 -92 -64 -139.5t-162 -47.5h-222v668h205q96 0 155.5 -45.5t59.5 -124.5q0 -107 -102 -142v-4q61 -18 95.5 -59.5zM184 596v-217h112q60 0 94 27t34 81t-34 81.5t-94 27.5h-112zM448 190q0 62 -37.5 91t-106.5 29h-120v-238h120
q144 0 144 118z" />
    <glyph glyph-name="C" unicode="C" horiz-adv-x="618" 
d="M203.5 132q51.5 -68 133.5 -68q122 0 166 137l75 -30q-30 -93 -94 -138t-150 -45q-77 0 -139.5 40t-99 118t-36.5 188t36 188t98.5 118t140.5 40q83 0 145.5 -42.5t91.5 -126.5l-73 -29q-44 122 -161 122q-82 0 -133.5 -68t-51.5 -202t51.5 -202z" />
    <glyph glyph-name="D" unicode="D" horiz-adv-x="665" 
d="M456 631.5q70 -36.5 110 -111.5t40 -186t-40 -186t-110 -111.5t-162 -36.5h-200v668h200q92 0 162 -36.5zM452 139.5q61 64.5 61 194.5t-61 194.5t-167 64.5h-100v-518h100q106 0 167 64.5z" />
    <glyph glyph-name="E" unicode="E" horiz-adv-x="550" 
d="M489 74v-74h-395v668h388v-74h-297v-214h278v-71h-278v-235h304z" />
    <glyph glyph-name="F" unicode="F" horiz-adv-x="521" 
d="M185 593v-225h266v-74h-266v-294h-91v668h382v-75h-291z" />
    <glyph glyph-name="G" unicode="G" horiz-adv-x="652" 
d="M585 337v-260q-44 -42 -103 -65.5t-130 -23.5q-84 0 -150.5 37.5t-105 115.5t-38.5 193q0 110 39 188t105 118t146 40q78 0 140.5 -35t94.5 -104l-70 -39q-50 102 -164 102q-89 0 -143.5 -68t-54.5 -202q0 -137 52.5 -204t146.5 -67q93 0 150 50v152h-162v72h247z" />
    <glyph glyph-name="H" unicode="H" horiz-adv-x="665" 
d="M570 668v-668h-91v307h-294v-307h-91v668h91v-286h294v286h91z" />
    <glyph glyph-name="I" unicode="I" horiz-adv-x="352" 
d="M221 596v-524h76v-72h-242v72h75v524h-75v72h242v-72h-76z" />
    <glyph glyph-name="J" unicode="J" horiz-adv-x="355" 
d="M51 -114q-20 2 -41 9v76q30 -11 70 -11q46 0 68 24.5t22 76.5v607h91v-621q0 -79 -44 -121t-118 -42q-28 0 -48 2z" />
    <glyph glyph-name="K" unicode="K" horiz-adv-x="587" 
d="M214 309h-29v-309h-91v668h91v-284h30l231 284h102l-264 -315l297 -353h-112z" />
    <glyph glyph-name="L" unicode="L" horiz-adv-x="508" 
d="M472 75v-75h-378v668h91v-593h287z" />
    <glyph glyph-name="M" unicode="M" horiz-adv-x="826" 
d="M94 668h144l157 -503q11 -33 17 -65h4q3 21 9 40t8 25l157 503h142v-668h-89v494q0 23 2 63l1 38h-4q-10 -41 -28 -96l-159 -499h-85l-159 500q-21 64 -29 95h-4l1 -39q2 -42 2 -62v-494h-87v668z" />
    <glyph glyph-name="N" unicode="N" horiz-adv-x="671" 
d="M94 668h110l249 -478q2 -5 15 -29.5t21 -47.5h4q-3 44 -3 87v468h87v-668h-112l-248 478q-25 49 -35 77h-4q3 -42 3 -87v-468h-87v668z" />
    <glyph glyph-name="O" unicode="O" horiz-adv-x="690" 
d="M198 28q-65 40 -102.5 118t-37.5 188t37.5 188t102.5 118t147 40t147 -40t102.5 -118t37.5 -188t-37.5 -188t-102.5 -118t-147 -40t-147 40zM484.5 132q53.5 68 53.5 202t-53.5 202t-139.5 68t-139.5 -68t-53.5 -202t53.5 -202t139.5 -68t139.5 68z" />
    <glyph glyph-name="P" unicode="P" horiz-adv-x="576" 
d="M470 616.5q64 -51.5 64 -147.5q0 -97 -64 -149t-167 -52h-118v-268h-91v668h209q103 0 167 -51.5zM440 468q0 125 -141 125h-114v-252h114q141 0 141 127z" />
    <glyph glyph-name="Q" unicode="Q" horiz-adv-x="690" 
d="M525 -110l-87 113q-43 -15 -93 -15q-82 0 -147 40t-102.5 118t-37.5 188t37.5 188t102.5 118t147 40t147 -40t102.5 -118t37.5 -188q0 -99 -30.5 -172.5t-84.5 -116.5l120 -155h-112zM205.5 132q53.5 -68 139.5 -68t139.5 68t53.5 202t-53.5 202t-139.5 68t-139.5 -68
t-53.5 -202t53.5 -202z" />
    <glyph glyph-name="R" unicode="R" horiz-adv-x="594" 
d="M285 282h-100v-282h-91v668h208q96 0 158.5 -49.5t62.5 -142.5q0 -73 -40 -120.5t-106 -64.5l186 -291h-109zM185 353h113q62 0 97 29.5t35 91.5q0 60 -35 90t-97 30h-113v-241z" />
    <glyph glyph-name="S" unicode="S" horiz-adv-x="562" 
d="M174 84q50 -21 101 -21q68 0 107.5 27t39.5 77q0 33 -16.5 55t-41 35.5t-67.5 32.5l-81 35q-149 62 -149 179q0 49 26 89t74 63.5t110 23.5q65 0 121 -22.5t98 -62.5l-47 -58q-33 32 -76 50t-92 18q-58 0 -90 -27t-32 -68q0 -42 26.5 -68t78.5 -47l85 -36q76 -32 120 -72
t44 -112q0 -87 -66 -137t-169 -50q-71 0 -131.5 25t-105.5 73l47 58q36 -39 86 -60z" />
    <glyph glyph-name="T" unicode="T" horiz-adv-x="543" 
d="M508 593h-191v-593h-91v593h-191v75h473v-75z" />
    <glyph glyph-name="U" unicode="U" horiz-adv-x="643" 
d="M150.5 45q-62.5 57 -62.5 166v457h91v-443q0 -84 37 -122.5t109 -38.5q71 0 107.5 39t36.5 122v443h86v-457q0 -109 -63.5 -166t-171.5 -57q-107 0 -169.5 57z" />
    <glyph glyph-name="V" unicode="V" horiz-adv-x="595" 
d="M298 98h4q6 33 19 76l156 494h90l-223 -668h-94l-222 668h95l155 -494q15 -47 20 -76z" />
    <glyph glyph-name="W" unicode="W" horiz-adv-x="902" 
d="M643 99h4q3 18 7.5 37.5t6.5 29.5l112 502h94l-170 -668h-101l-128 488q-12 47 -15 75h-4q-4 -38 -14 -75l-130 -488h-100l-170 668h96l113 -500q12 -51 14 -70h4q3 21 16 72l132 498h83l135 -501q10 -37 15 -68z" />
    <glyph glyph-name="X" unicode="X" horiz-adv-x="573" 
d="M550 0h-103l-134 232q-16 28 -25 50h-4q-10 -22 -26 -49l-141 -233h-95l210 337l-197 331h98l124 -218q18 -31 27 -53h4q14 30 28 52l133 219h92l-201 -322z" />
    <glyph glyph-name="Y" unicode="Y" horiz-adv-x="597" 
d="M346 313v-313h-91v309l-234 359h106l148 -239q18 -29 25 -44h4q9 20 24 43l150 240h98z" />
    <glyph glyph-name="Z" unicode="Z" horiz-adv-x="532" 
d="M485 73v-73h-442v79l344 516h-330v73h427v-79l-344 -516h345z" />
    <glyph glyph-name="bracketleft" unicode="[" horiz-adv-x="334" 
d="M301 649h-130v-771h130v-68h-209v907h209v-68z" />
    <glyph glyph-name="backslash" unicode="\" horiz-adv-x="411" 
d="M384 -95h-75l-281 763h74z" />
    <glyph glyph-name="bracketright" unicode="]" horiz-adv-x="334" 
d="M242 717v-907h-209v68h130v771h-130v68h209z" />
    <glyph glyph-name="asciicircum" unicode="^" 
d="M382 368l-111 213l-111 -213h-80l169 312h44l168 -312h-79z" />
    <glyph glyph-name="underscore" unicode="_" horiz-adv-x="500" 
d="M0 -54h500v-72h-500v72z" />
    <glyph glyph-name="grave" unicode="`" horiz-adv-x="399" 
d="M216 578l-119 166h96l96 -166h-73z" />
    <glyph glyph-name="a" unicode="a" horiz-adv-x="509" 
d="M440 0h-86l-4 54l-2 20h-4q-48 -84 -154 -84q-63 0 -102.5 35.5t-39.5 99.5q0 67 41.5 105.5t106.5 53.5q72 18 146 27v26q0 51 -23.5 74.5t-70.5 23.5q-39 0 -64 -18.5t-27 -46.5h-89q2 36 24.5 67t63 49t93.5 18q85 0 133.5 -45t48.5 -131v-201q0 -50 9 -127zM305 99.5
q37 39.5 37 103.5v50q-44 -6 -111 -24q-49 -12 -70.5 -35.5t-21.5 -59.5q0 -35 20.5 -54.5t54.5 -19.5q54 0 91 39.5z" />
    <glyph glyph-name="b" unicode="b" horiz-adv-x="570" 
d="M416 474.5q46 -29.5 73.5 -88t27.5 -140.5q0 -81 -27.5 -139t-73.5 -87.5t-101 -29.5q-99 0 -144 89h-4v-79h-85v695h89v-273h4q42 82 140 82q55 0 101 -29.5zM391.5 109q34.5 48 34.5 137t-34.5 138t-93.5 49t-94 -49t-35 -137t35 -137t94 -49t93.5 48z" />
    <glyph glyph-name="c" unicode="c" horiz-adv-x="494" 
d="M157.5 21q-49.5 31 -77.5 89t-28 136t28 136.5t78 90t113 31.5q58 0 104 -25t74 -79l-67 -38q-19 37 -45.5 54t-63.5 17q-58 0 -94 -49t-36 -138q0 -88 36 -136.5t94 -48.5q40 0 67 18.5t46 61.5l69 -34q-52 -117 -184 -117q-64 0 -113.5 31z" />
    <glyph glyph-name="d" unicode="d" horiz-adv-x="570" 
d="M488 695v-695h-85v79h-4q-44 -89 -144 -89q-55 0 -101 29.5t-73.5 87.5t-27.5 139q0 82 27.5 140.5t73.5 88t101 29.5q98 0 140 -82h4v273h89zM366 110q35 49 35 137t-35 137t-94 49t-93.5 -49t-34.5 -138q0 -88 34.5 -136.5t93.5 -48.5t94 49z" />
    <glyph glyph-name="e" unicode="e" horiz-adv-x="527" 
d="M476 223h-334q5 -79 42.5 -121t102.5 -42q75 0 128 62l47 -51q-70 -81 -181 -81q-68 0 -119.5 30.5t-80.5 88.5t-29 137t28 137.5t77.5 89.5t113.5 31q62 0 108.5 -29.5t72 -84t25.5 -127.5q0 -28 -1 -40zM184 397q-34 -37 -41 -109h247q-4 72 -35 109t-84 37t-87 -37z
" />
    <glyph glyph-name="f" unicode="f" horiz-adv-x="349" 
d="M225 617.5q-15 -19.5 -15 -62.5v-61h114v-68h-114v-426h-89v426h-93v68h93v74q0 68 37.5 103.5t100.5 35.5q45 0 73 -8v-69q-35 7 -58 7q-34 0 -49 -19.5z" />
    <glyph glyph-name="g" unicode="g" horiz-adv-x="515" 
d="M434 49.5q51 -35.5 51 -94.5q0 -68 -61.5 -106.5t-168.5 -38.5q-105 0 -164.5 34.5t-59.5 94.5q0 44 35.5 75.5t82.5 41.5v4q-37 5 -57 23.5t-20 46.5q0 31 26.5 52t72.5 30v4q-48 13 -76 46.5t-28 81.5q0 74 51 117t132 43q39 0 70 -10h156v-63q-44 0 -91 6v-6
q49 -30 49 -94q0 -56 -40.5 -93.5t-106.5 -46.5q-70 -11 -100 -24t-30 -31q0 -14 13.5 -22.5t45 -14t93.5 -12.5q74 -8 125 -43.5zM178 414.5q-27 -26.5 -27 -69.5q0 -41 27 -66.5t72 -25.5q46 0 73 25.5t27 66.5q0 43 -27 69.5t-73 26.5q-45 0 -72 -26.5zM364 -107
q37 21 37 55q0 35 -37.5 56.5t-105.5 21.5q-69 0 -106 -21.5t-37 -56.5q0 -34 37 -55t106 -21t106 21z" />
    <glyph glyph-name="h" unicode="h" horiz-adv-x="549" 
d="M430 459.5q42 -44.5 42 -120.5v-339h-88v320q0 54 -21.5 83.5t-70.5 29.5q-51 0 -86 -38t-35 -101v-294h-89v695h89v-267h4q20 36 56 56t87 20q70 0 112 -44.5z" />
    <glyph glyph-name="i" unicode="i" horiz-adv-x="253" 
d="M171 494v-494h-89v494h89zM83 599q-17 17 -17 43q0 27 17 44t44 17t43.5 -17t16.5 -44q0 -26 -16.5 -43t-43.5 -17t-44 17z" />
    <glyph glyph-name="j" unicode="j" horiz-adv-x="261" 
d="M-32 -181v71q35 -9 57 -9q35 0 50 19.5t15 63.5v530h88v-544q0 -139 -135 -139q-41 0 -75 8zM91 599q-17 17 -17 43q0 27 17 44t44 17t43.5 -17t16.5 -44q0 -26 -16.5 -43t-43.5 -17t-44 17z" />
    <glyph glyph-name="k" unicode="k" horiz-adv-x="495" 
d="M201 235h-30v-235h-89v695h89v-392h28l163 191h99l-193 -218l220 -276h-106z" />
    <glyph glyph-name="l" unicode="l" horiz-adv-x="271" 
d="M240 -2q-26 -8 -65 -8q-43 0 -69 23.5t-26 73.5v608h89v-587q0 -48 34 -48q19 0 37 6v-68z" />
    <glyph glyph-name="m" unicode="m" horiz-adv-x="812" 
d="M695 460q40 -44 40 -119v-341h-89v323q0 54 -18.5 82t-64.5 28t-78 -35.5t-32 -101.5v-296h-89v323q0 54 -18.5 82t-64.5 28q-45 0 -77.5 -37t-32.5 -100v-296h-89v494h85v-72h4q18 39 52 60.5t85 21.5q46 0 81 -23t51 -65q20 41 57.5 64.5t90.5 23.5q67 0 107 -44z" />
    <glyph glyph-name="n" unicode="n" horiz-adv-x="549" 
d="M429.5 459.5q42.5 -44.5 42.5 -120.5v-339h-88v320q0 54 -21.5 83.5t-70.5 29.5q-51 0 -86 -38t-35 -101v-294h-89v494h85v-72h5q20 39 57 60.5t88 21.5q70 0 112.5 -44.5z" />
    <glyph glyph-name="o" unicode="o" horiz-adv-x="554" 
d="M159 21q-51 31 -79 89.5t-28 136.5t28 136.5t79 89.5t118 31t118 -31t79 -89.5t28 -136.5t-28 -136.5t-79 -89.5t-118 -31t-118 31zM375 109.5q36 48.5 36 137.5t-36 137.5t-98 48.5t-98 -48.5t-36 -137.5t36 -137.5t98 -48.5t98 48.5z" />
    <glyph glyph-name="p" unicode="p" horiz-adv-x="570" 
d="M416 474.5q46 -29.5 73.5 -87.5t27.5 -139q0 -82 -27.5 -140.5t-73.5 -88t-101 -29.5q-98 0 -140 82h-4v-251h-89v673h85v-79h4q45 89 144 89q55 0 101 -29.5zM391.5 110q34.5 49 34.5 138t-34.5 137.5t-93.5 48.5t-94 -49.5t-35 -137.5t35 -137t94 -49t93.5 49z" />
    <glyph glyph-name="q" unicode="q" horiz-adv-x="570" 
d="M488 494v-673h-89v251h-4q-42 -82 -140 -82q-55 0 -101 29.5t-73.5 88t-27.5 140.5q0 81 27.5 139t73.5 87.5t101 29.5q100 0 144 -89h4v79h85zM366 110q35 49 35 137t-35 137.5t-94 49.5t-93.5 -48.5t-34.5 -137.5t34.5 -138t93.5 -49t94 49z" />
    <glyph glyph-name="r" unicode="r" horiz-adv-x="368" 
d="M340 500v-80q-16 3 -47 3q-53 0 -87.5 -43.5t-34.5 -124.5v-255h-89v494h85v-82h4q19 43 52 67.5t78 24.5q23 0 39 -4z" />
    <glyph glyph-name="s" unicode="s" horiz-adv-x="462" 
d="M152.5 77q34.5 -17 75.5 -17q103 0 103 68q0 32 -22.5 49t-74.5 34l-59 21q-118 43 -118 138q0 58 45.5 96t121.5 38q110 0 178 -70l-47 -53q-56 53 -127 53q-42 0 -64.5 -17t-22.5 -43q0 -27 19.5 -43.5t58.5 -30.5l60 -22q41 -15 69 -31.5t47.5 -44.5t19.5 -70
q0 -64 -50.5 -103t-133.5 -39q-118 0 -192 85l47 52q32 -33 66.5 -50z" />
    <glyph glyph-name="t" unicode="t" horiz-adv-x="361" 
d="M291 63.5q16 3.5 36 11.5v-68q-39 -17 -97 -17q-51 0 -82 29.5t-31 90.5v316h-91v68h91v102l88 34v-136h117v-68h-117v-294q0 -39 11.5 -55.5t38.5 -16.5q20 0 36 3.5z" />
    <glyph glyph-name="u" unicode="u" horiz-adv-x="550" 
d="M467 494v-494h-85v72h-5q-20 -39 -57 -60.5t-88 -21.5q-70 0 -112.5 44.5t-42.5 120.5v339h88v-320q0 -54 21.5 -83.5t70.5 -29.5q51 0 86 38t35 101v294h89z" />
    <glyph glyph-name="v" unicode="v" horiz-adv-x="502" 
d="M29 494h93l108 -328q9 -28 15 -52l6 -21h4q10 42 19 70l111 331h88l-176 -494h-94z" />
    <glyph glyph-name="w" unicode="w" horiz-adv-x="739" 
d="M33 494h93l80 -327q12 -59 14 -75h4q3 23 8.5 44.5t7.5 28.5l87 329h85l89 -328q11 -38 16 -74h4q8 45 15 74l78 328h92l-138 -494h-95l-84 317q-8 29 -17 88h-4q-6 -47 -17 -88l-88 -317h-95z" />
    <glyph glyph-name="x" unicode="x" horiz-adv-x="477" 
d="M457 0h-100l-92 150q-12 19 -25 51h-4q-8 -22 -27 -51l-95 -150h-94l167 256l-153 238h94l81 -131q16 -26 27 -54h4q9 25 32 60l78 125h90l-152 -233z" />
    <glyph glyph-name="y" unicode="y" horiz-adv-x="496" 
d="M48 -182v71q35 -8 55 -8q28 0 46.5 20t34.5 67l22 61l-178 465h94l107 -309q11 -30 20 -70h4q7 34 19 70l108 309h89l-205 -553q-27 -73 -62 -101.5t-90 -28.5q-33 0 -64 7z" />
    <glyph glyph-name="z" unicode="z" horiz-adv-x="447" 
d="M401 66v-66h-358v69l261 359h-250v66h346v-69l-261 -359h262z" />
    <glyph glyph-name="braceleft" unicode="{" horiz-adv-x="345" 
d="M182 227.5q15 -25.5 15 -82.5v-168q0 -42 9 -63t33 -30t73 -9v-64q-79 0 -119.5 15t-56 48.5t-15.5 97.5v170q0 33 -7.5 51.5t-28 27.5t-61.5 10v66q41 1 61.5 10t28 27.5t7.5 51.5v170q0 64 15.5 97.5t56 48.5t119.5 15v-64q-49 0 -73 -9t-33 -30.5t-9 -62.5v-169
q0 -56 -15 -81.5t-53 -36.5q38 -11 53 -36.5z" />
    <glyph glyph-name="bar" unicode="|" horiz-adv-x="261" 
d="M170 738v-838h-78v838h78z" />
    <glyph glyph-name="braceright" unicode="}" horiz-adv-x="345" 
d="M163.5 300.5q-15.5 25.5 -15.5 81.5v169q0 42 -9 63t-33 30t-73 9v64q79 0 120 -15t56.5 -48.5t15.5 -97.5v-170q0 -33 7.5 -51.5t28 -27.5t60.5 -10v-66q-40 -1 -60.5 -10t-28 -27.5t-7.5 -51.5v-170q0 -64 -15.5 -97.5t-56.5 -48.5t-120 -15v64q49 0 73 9t33 30t9 63
v168q0 57 15 82.5t54 36.5q-38 11 -53.5 36.5z" />
    <glyph glyph-name="asciitilde" unicode="~" 
d="M304.5 237.5q-22.5 11.5 -51.5 32.5q-18 15 -32 23t-28 8q-20 0 -32 -15.5t-14 -54.5h-62q2 77 31.5 111t72.5 34q30 0 53.5 -12t49.5 -33q20 -15 33.5 -22.5t27.5 -7.5q17 0 29.5 16t14.5 54h61q-1 -77 -30.5 -111t-71.5 -34q-29 0 -51.5 11.5z" />
    <glyph glyph-name="uni00A0" unicode="&#xa0;" horiz-adv-x="243" 
 />
    <glyph glyph-name="exclamdown" unicode="&#xa1;" horiz-adv-x="257" 
d="M82 393q-18 18 -18 46q0 29 18 47t46 18q29 0 47 -18t18 -47q0 -28 -18.5 -46t-46.5 -18t-46 18zM82 -33l17 327h59l18 -327v-146h-94v146z" />
    <glyph glyph-name="cent" unicode="&#xa2;" 
d="M410.5 124.5q-40.5 -28.5 -90.5 -34.5v-90h-66v91q-82 14 -131 79t-49 165q0 99 49.5 165t130.5 80v88h66v-87q49 -6 88.5 -33.5t60.5 -79.5l-69 -31q-22 61 -80 73v-349q56 12 83 78l69 -32q-21 -54 -61.5 -82.5zM187.5 224q24.5 -44 66.5 -59v340q-42 -15 -66.5 -59.5
t-24.5 -110.5q0 -67 24.5 -111z" />
    <glyph glyph-name="sterling" unicode="&#xa3;" 
d="M498 71v-71h-436v67q42 15 71 53.5t29 86.5q0 24 -2.5 42t-13.5 53h-97v63h77q-11 36 -15.5 65t-4.5 61q0 87 52.5 138t147.5 51q44 0 85.5 -13t74.5 -38l-33 -63q-59 39 -119 39q-56 0 -88.5 -33t-32.5 -91q0 -22 4.5 -45t18.5 -71h210v-63h-192q11 -46 11 -85
q0 -43 -17 -79t-49 -62v-5h319z" />
    <glyph glyph-name="currency" unicode="&#xa4;" 
d="M440 207l80 -87l-53 -51l-78 84q-50 -36 -119 -36q-68 0 -118 36l-77 -84l-53 50l79 86q-38 58 -38 135q0 74 36 132l-77 84l53 52l75 -82q51 37 120 37q71 0 122 -38l76 83l53 -51l-79 -86q35 -56 35 -131q0 -76 -37 -133zM367.5 231.5q34.5 43.5 34.5 108.5
t-34.5 108.5t-97.5 43.5t-98 -43.5t-35 -108.5t35 -108.5t98 -43.5t97.5 43.5z" />
    <glyph glyph-name="yen" unicode="&#xa5;" 
d="M332 342h120v-64h-138v-89h138v-63h-138v-126h-87v126h-138v63h138v89h-138v64h120l-187 326h101l128 -239q15 -30 20 -43h4q1 3 20 43l128 239h97z" />
    <glyph glyph-name="brokenbar" unicode="&#xa6;" horiz-adv-x="261" 
d="M170 738v-327h-78v327h78zM170 227v-327h-78v327h78z" />
    <glyph glyph-name="section" unicode="&#xa7;" horiz-adv-x="500" 
d="M406.5 100q13.5 -25 13.5 -60q0 -64 -46.5 -103t-124.5 -39q-58 0 -108.5 21.5t-83.5 60.5l44 52q29 -31 67.5 -48.5t78.5 -17.5q43 0 66.5 18t23.5 51q0 30 -19 47t-73 40l-55 24q-42 18 -70 35t-46.5 44.5t-18.5 68.5q0 83 85 130v4q-49 41 -49 107q0 64 46 103.5
t119 39.5q108 0 176 -74l-41 -51q-59 57 -131 57q-39 0 -62 -19.5t-23 -51.5t18.5 -50.5t61.5 -37.5l52 -23q47 -22 74.5 -39t46 -45t18.5 -71q0 -42 -22.5 -73t-56.5 -52v-4q26 -19 39.5 -44zM369 262q0 37 -23.5 57t-82.5 46q-60 26 -64 29q-30 -16 -48 -37t-18 -53
q0 -33 24.5 -53t71.5 -40l81 -35q59 36 59 86z" />
    <glyph glyph-name="dieresis" unicode="&#xa8;" horiz-adv-x="399" 
d="M24.5 602q-16.5 16 -16.5 41q0 26 16 42.5t42 16.5t42 -16.5t16 -42.5q0 -25 -16 -41t-42 -16q-25 0 -41.5 16zM220.5 602q-16.5 16 -16.5 41q0 26 16 42.5t42 16.5t42 -16.5t16 -42.5q0 -25 -16 -41t-42 -16q-25 0 -41.5 16z" />
    <glyph glyph-name="copyright" unicode="&#xa9;" horiz-adv-x="751" 
d="M212.5 30.5q-72.5 41.5 -114 119.5t-41.5 183t41.5 183t114 120t163.5 42t163.5 -42t113.5 -120t41 -183t-41 -183t-113.5 -119.5t-163.5 -41.5t-163.5 41.5zM512.5 75.5q59.5 35.5 92.5 102t33 155.5t-33 156t-92.5 102.5t-136.5 35.5t-137 -35.5t-93.5 -102.5
t-33.5 -156t33.5 -155.5t93.5 -102t137 -35.5t136.5 35.5zM311 229q28 -38 73 -38q33 0 54.5 17t35.5 56l55 -21q-18 -56 -56.5 -83t-90.5 -27q-74 0 -121 54t-47 151t47 151.5t121 54.5q50 0 88 -25.5t55 -75.5l-57 -24q-23 67 -84 67q-45 0 -73 -39t-28 -109
q0 -71 28 -109z" />
    <glyph glyph-name="ordfeminine" unicode="&#xaa;" horiz-adv-x="409" 
d="M341 321h-69q-3 23 -4 51h-4q-13 -27 -39 -42.5t-62 -15.5q-49 0 -78.5 25.5t-29.5 70.5q0 48 30 74t80 38q47 10 96 18v18q0 63 -62 63q-26 0 -42 -11t-19 -31h-67q4 44 38 70.5t90 26.5q62 0 99 -32.5t37 -94.5v-135q0 -30 6 -93zM238.5 392q22.5 26 22.5 70v34
q-29 -4 -71 -15q-32 -9 -45.5 -24.5t-13.5 -40.5q0 -24 13.5 -37t36.5 -13q35 0 57.5 26z" />
    <glyph glyph-name="guillemotleft" unicode="&#xab;" horiz-adv-x="458" 
d="M155 55l-115 200l115 194h64l-83 -194l83 -200h-64zM336 55l-116 200l116 194h64l-83 -194l83 -200h-64z" />
    <glyph glyph-name="logicalnot" unicode="&#xac;" 
d="M501 338v-264h-76v191h-390v73h466z" />
    <glyph glyph-name="uni00AD" unicode="&#xad;" horiz-adv-x="381" 
d="M72 316h236v-72h-236v72z" />
    <glyph glyph-name="registered" unicode="&#xae;" horiz-adv-x="494" 
d="M345.5 655.5q43.5 -24.5 68.5 -70t25 -105.5t-25 -105t-68.5 -69.5t-98.5 -24.5t-99 24.5t-69 69.5t-25 105t25.5 105.5t69 70t98.5 24.5t98.5 -24.5zM358.5 360q43.5 44 43.5 120q0 75 -43.5 119.5t-111.5 44.5t-112 -44.5t-44 -119.5q0 -74 44 -119t112 -45t111.5 44z
M323.5 491q-12.5 -16 -34.5 -25l61 -100h-61l-49 92h-26v-92h-51v238h84q39 0 64 -19.5t25 -54.5q0 -23 -12.5 -39zM214 498h31q18 0 28 8t10 23t-10.5 24t-27.5 9h-31v-64z" />
    <glyph glyph-name="macron" unicode="&#xaf;" horiz-adv-x="399" 
d="M50 667h299v-66h-299v66z" />
    <glyph glyph-name="degree" unicode="&#xb0;" horiz-adv-x="357" 
d="M86.5 453q-35.5 38 -35.5 95q0 56 35.5 94t92.5 38q56 0 91.5 -38.5t35.5 -93.5q0 -57 -35 -95t-92 -38t-92.5 38zM229 491.5q19 22.5 19 56.5t-18.5 56t-50.5 22t-50.5 -22t-18.5 -56t18.5 -56.5t50.5 -22.5q31 0 50 22.5z" />
    <glyph glyph-name="plusminus" unicode="&#xb1;" 
d="M490 397v-72h-181v-187h-77v187h-180v72h180v191h77v-191h181zM52 82h438v-71h-438v71z" />
    <glyph glyph-name="uni00B2" unicode="&#xb2;" horiz-adv-x="352" 
d="M43 337q74 56 112.5 91.5t56 65t17.5 61.5q0 27 -15.5 44.5t-42.5 17.5q-26 0 -42.5 -17t-16.5 -43h-67q0 55 36.5 86.5t90.5 31.5q59 0 94.5 -32t35.5 -86q0 -60 -43 -108t-135 -109v-4q30 3 58 3h125v-58h-264v56z" />
    <glyph glyph-name="uni00B3" unicode="&#xb3;" horiz-adv-x="352" 
d="M284.5 452q23.5 -25 23.5 -64q0 -52 -39.5 -83t-102.5 -31q-46 0 -81 19.5t-51 60.5l52 23q26 -47 77 -47q32 0 51.5 17t19.5 46q0 30 -22.5 46.5t-52.5 16.5h-27v52h28q28 0 46 16t18 42q0 24 -16.5 39t-43.5 15q-23 0 -40.5 -12.5t-26.5 -34.5l-53 22q11 36 45 58
t78 22q56 0 92 -28t36 -73q0 -33 -19.5 -54.5t-48.5 -30.5v-4q34 -8 57.5 -33z" />
    <glyph glyph-name="acute" unicode="&#xb4;" horiz-adv-x="399" 
d="M206 744h96l-119 -166h-73z" />
    <glyph glyph-name="uni00B5" unicode="&#xb5;" horiz-adv-x="569" 
d="M524 68v-68q-21 -7 -46 -7q-39 0 -59.5 18.5t-24.5 57.5h-5q-17 -38 -48 -58t-71 -20q-60 0 -92 41h-7v-211h-89v673h89v-327q0 -53 28 -79.5t71 -26.5q48 0 81 39.5t33 100.5v293h88v-362q0 -40 8.5 -53t26.5 -13q9 0 17 2z" />
    <glyph glyph-name="paragraph" unicode="&#xb6;" horiz-adv-x="534" 
d="M437 -179h-59v795h-80v-795h-59v448h-23q-89 0 -137 50.5t-48 149.5t47.5 149t137.5 50h221v-847z" />
    <glyph glyph-name="periodcentered" unicode="&#xb7;" horiz-adv-x="263" 
d="M85.5 235q-18.5 19 -18.5 48t18 47.5t47 18.5t47.5 -18.5t18.5 -47.5t-18.5 -48t-47.5 -19q-28 0 -46.5 19z" />
    <glyph glyph-name="cedilla" unicode="&#xb8;" horiz-adv-x="399" 
d="M95 -136l36 34q14 -15 27.5 -23t30.5 -8q21 0 33.5 12t12.5 31q0 30 -22.5 55.5t-70.5 56.5l64 -9l15 -8q4 -3 27 -18t39.5 -38.5t16.5 -50.5q0 -40 -28 -63.5t-75 -23.5q-68 0 -106 53z" />
    <glyph glyph-name="uni00B9" unicode="&#xb9;" horiz-adv-x="285" 
d="M255 339v-58h-210v58h72v226q-25 -13 -71 -15v56q40 2 61 17.5t26 44.5h56v-329h66z" />
    <glyph glyph-name="ordmasculine" unicode="&#xba;" horiz-adv-x="428" 
d="M97 363q-44 49 -44 132t44 132t117 49t117 -49t44 -132t-44 -132t-117 -49t-117 49zM276 405q23 32 23 90t-23 90t-62 32t-62 -32t-23 -90t23 -90t62 -32t62 32z" />
    <glyph glyph-name="guillemotright" unicode="&#xbb;" horiz-adv-x="458" 
d="M138 255l-83 194h64l115 -194l-115 -200h-64zM319 255l-84 194h64l116 -194l-116 -200h-64z" />
    <glyph glyph-name="onequarter" unicode="&#xbc;" horiz-adv-x="801" 
d="M255 339v-58h-210v58h72v226q-25 -13 -71 -15v56q40 2 61 17.5t26 44.5h56v-329h66zM232 0h-82l409 668h83zM767 78h-60v-78h-72v78h-166v67l133 242h105v-251h60v-58zM526 135h112v129q0 24 3 84h-4q-16 -42 -34 -75z" />
    <glyph glyph-name="onehalf" unicode="&#xbd;" horiz-adv-x="812" 
d="M255 339v-58h-210v58h72v226q-25 -13 -71 -15v56q40 2 61 17.5t26 44.5h56v-329h66zM232 0h-82l409 668h83zM503 56q74 56 112.5 91.5t56 65t17.5 61.5q0 27 -15.5 44.5t-42.5 17.5q-26 0 -42.5 -17t-16.5 -43h-67q0 55 36.5 86.5t90.5 31.5q59 0 94.5 -32t35.5 -86
q0 -60 -43 -108t-135 -109v-4q30 3 58 3h125v-58h-264v56z" />
    <glyph glyph-name="threequarters" unicode="&#xbe;" horiz-adv-x="829" 
d="M284.5 452q23.5 -25 23.5 -64q0 -52 -39.5 -83t-102.5 -31q-46 0 -81 19.5t-51 60.5l52 23q26 -47 77 -47q32 0 51.5 17t19.5 46q0 30 -22.5 46.5t-52.5 16.5h-27v52h28q28 0 46 16t18 42q0 24 -16.5 39t-43.5 15q-23 0 -40.5 -12.5t-26.5 -34.5l-53 22q11 36 45 58
t78 22q56 0 92 -28t36 -73q0 -33 -19.5 -54.5t-48.5 -30.5v-4q34 -8 57.5 -33zM259 0h-82l409 668h83zM795 78h-60v-78h-72v78h-166v67l133 242h105v-251h60v-58zM554 135h112v129q0 24 3 84h-4q-16 -42 -34 -75z" />
    <glyph glyph-name="questiondown" unicode="&#xbf;" horiz-adv-x="447" 
d="M185.5 389.5q-18.5 18.5 -18.5 47.5t18.5 48t47.5 19q28 0 46.5 -19t18.5 -48t-18.5 -47.5t-46.5 -18.5q-29 0 -47.5 18.5zM416 -3q0 -85 -50.5 -136t-135.5 -51q-52 0 -95.5 21.5t-69 63t-25.5 98.5q0 69 41 121t111 79v102h82v-150q-71 -19 -104.5 -59t-33.5 -91
q0 -49 25 -78t73 -29q44 0 69 30t25 79h88z" />
    <glyph glyph-name="Agrave" unicode="&#xc0;" horiz-adv-x="607" 
d="M431 170h-262l-54 -170h-88l225 668h103l225 -668h-95zM409 242l-87 275q-10 32 -18 71h-4q-7 -32 -20 -70l-88 -276h217zM276 752l-108 142h100l85 -142h-77z" />
    <glyph glyph-name="Aacute" unicode="&#xc1;" horiz-adv-x="607" 
d="M431 170h-262l-54 -170h-88l225 668h103l225 -668h-95zM409 242l-87 275q-10 32 -18 71h-4q-7 -32 -20 -70l-88 -276h217zM340 894h100l-108 -142h-77z" />
    <glyph glyph-name="Acircumflex" unicode="&#xc2;" horiz-adv-x="607" 
d="M431 170h-262l-54 -170h-88l225 668h103l225 -668h-95zM409 242l-87 275q-10 32 -18 71h-4q-7 -32 -20 -70l-88 -276h217zM387 750l-83 86l-83 -86h-80l119 136h87l119 -136h-79z" />
    <glyph glyph-name="Atilde" unicode="&#xc3;" horiz-adv-x="607" 
d="M431 170h-262l-54 -170h-88l225 668h103l225 -668h-95zM409 242l-87 275q-10 32 -18 71h-4q-7 -32 -20 -70l-88 -276h217zM323.5 762.5q-17.5 9.5 -38.5 27.5q-14 12 -24 18t-20 6q-34 0 -38 -57h-61q3 69 32 97.5t67 28.5q25 0 41.5 -8.5t38.5 -27.5q18 -16 26.5 -21
t19.5 -5q32 0 38 57h60q-3 -70 -32 -97.5t-67 -27.5q-25 0 -42.5 9.5z" />
    <glyph glyph-name="Adieresis" unicode="&#xc4;" horiz-adv-x="607" 
d="M431 170h-262l-54 -170h-88l225 668h103l225 -668h-95zM409 242l-87 275q-10 32 -18 71h-4q-7 -32 -20 -70l-88 -276h217zM155.5 761q-16.5 16 -16.5 42t16.5 43t42.5 17q27 0 43 -16.5t16 -43.5q0 -26 -16 -42t-43 -16q-26 0 -42.5 16zM367.5 761q-16.5 16 -16.5 42
t16.5 43t42.5 17t43 -17t17 -43q0 -25 -17 -41.5t-43 -16.5t-42.5 16z" />
    <glyph glyph-name="Aring" unicode="&#xc5;" horiz-adv-x="607" 
d="M431 170h-262l-54 -170h-88l225 668h103l225 -668h-95zM409 242l-87 275q-10 32 -18 71h-4q-7 -32 -20 -70l-88 -276h217zM221.5 749q-32.5 29 -32.5 73q0 45 32 74t82 29q51 0 83.5 -29t32.5 -74q0 -44 -33 -73t-83 -29q-49 0 -81.5 29zM344.5 783.5
q16.5 15.5 16.5 38.5q0 24 -16 40t-42 16t-41 -16t-15 -40q0 -23 16 -38.5t40 -15.5q25 0 41.5 15.5z" />
    <glyph glyph-name="AE" unicode="&#xc6;" horiz-adv-x="872" 
d="M810 74v-74h-386v158h-242l-89 -158h-95l390 668h416v-74h-288v-214h270v-71h-270v-235h294zM424 230v288q0 39 3 69h-4q-17 -34 -37 -69l-163 -288h201z" />
    <glyph glyph-name="Ccedilla" unicode="&#xc7;" horiz-adv-x="618" 
d="M500.5 46q-52.5 -45 -122.5 -55v-5q56 -39 56 -85q0 -42 -29 -66.5t-78 -24.5q-37 0 -65 15t-45 40l39 37q12 -15 26 -23t32 -8q22 0 34.5 11.5t12.5 30.5q0 37 -45 76q-73 5 -131.5 46t-92 117.5t-33.5 181.5q0 110 36 188t98.5 118t140.5 40q83 0 145.5 -42.5
t91.5 -126.5l-73 -29q-44 122 -161 122q-82 0 -133.5 -68t-51.5 -202t51.5 -202t133.5 -68q122 0 166 137l75 -30q-25 -80 -77.5 -125z" />
    <glyph glyph-name="Egrave" unicode="&#xc8;" horiz-adv-x="550" 
d="M489 74v-74h-395v668h388v-74h-297v-214h278v-71h-278v-235h304zM261 752l-108 142h100l85 -142h-77z" />
    <glyph glyph-name="Eacute" unicode="&#xc9;" horiz-adv-x="550" 
d="M489 74v-74h-395v668h388v-74h-297v-214h278v-71h-278v-235h304zM325 894h100l-108 -142h-77z" />
    <glyph glyph-name="Ecircumflex" unicode="&#xca;" horiz-adv-x="550" 
d="M489 74v-74h-395v668h388v-74h-297v-214h278v-71h-278v-235h304zM372 750l-83 86l-83 -86h-80l119 136h87l119 -136h-79z" />
    <glyph glyph-name="Edieresis" unicode="&#xcb;" horiz-adv-x="550" 
d="M489 74v-74h-395v668h388v-74h-297v-214h278v-71h-278v-235h304zM139.5 761q-16.5 16 -16.5 42t16.5 43t42.5 17q27 0 43 -16.5t16 -43.5q0 -26 -16 -42t-43 -16q-26 0 -42.5 16zM351.5 761q-16.5 16 -16.5 42t16.5 43t42.5 17t43 -17t17 -43q0 -25 -17 -41.5t-43 -16.5
t-42.5 16z" />
    <glyph glyph-name="Igrave" unicode="&#xcc;" horiz-adv-x="352" 
d="M221 596v-524h76v-72h-242v72h75v524h-75v72h242v-72h-76zM148 752l-108 142h100l85 -142h-77z" />
    <glyph glyph-name="Iacute" unicode="&#xcd;" horiz-adv-x="352" 
d="M221 596v-524h76v-72h-242v72h75v524h-75v72h242v-72h-76zM212 894h100l-108 -142h-77z" />
    <glyph glyph-name="Icircumflex" unicode="&#xce;" horiz-adv-x="352" 
d="M117 752h-73l89 134h87l90 -134h-74l-59 79zM297 596h-76v-524h76v-72h-242v72h75v524h-75v72h242v-72z" />
    <glyph glyph-name="Idieresis" unicode="&#xcf;" horiz-adv-x="352" 
d="M129.5 762q-16.5 -16 -42.5 -16q-25 0 -41.5 16.5t-16.5 41.5q0 26 16.5 42t41.5 16q26 0 42.5 -16t16.5 -42t-16.5 -42zM306.5 846q16.5 -16 16.5 -42t-16.5 -42t-42.5 -16q-25 0 -41.5 16.5t-16.5 41.5q0 26 16.5 42t41.5 16q26 0 42.5 -16zM297 596h-76v-524h76v-72
h-242v72h75v524h-75v72h242v-72z" />
    <glyph glyph-name="Eth" unicode="&#xd0;" horiz-adv-x="687" 
d="M477.5 631.5q70.5 -36.5 110.5 -111.5t40 -186t-40 -186t-110.5 -111.5t-162.5 -36.5h-199v312h-93v62h93v294h199q92 0 162.5 -36.5zM474 139.5q61 64.5 61 194.5t-61 194.5t-167 64.5h-100v-219h150v-62h-150v-237h100q106 0 167 64.5z" />
    <glyph glyph-name="Ntilde" unicode="&#xd1;" horiz-adv-x="671" 
d="M94 668h110l249 -478q2 -5 15 -29.5t21 -47.5h4q-3 44 -3 87v468h87v-668h-112l-248 478q-25 49 -35 77h-4q3 -42 3 -87v-468h-87v668zM369.5 762.5q-17.5 9.5 -38.5 27.5q-14 12 -24 18t-20 6q-34 0 -38 -57h-61q3 69 32 97.5t67 28.5q25 0 41.5 -8.5t38.5 -27.5
q18 -16 26.5 -21t19.5 -5q32 0 38 57h60q-3 -70 -32 -97.5t-67 -27.5q-25 0 -42.5 9.5z" />
    <glyph glyph-name="Ograve" unicode="&#xd2;" horiz-adv-x="690" 
d="M198 28q-65 40 -102.5 118t-37.5 188t37.5 188t102.5 118t147 40t147 -40t102.5 -118t37.5 -188t-37.5 -188t-102.5 -118t-147 -40t-147 40zM484.5 132q53.5 68 53.5 202t-53.5 202t-139.5 68t-139.5 -68t-53.5 -202t53.5 -202t139.5 -68t139.5 68zM317 752l-108 142h100
l85 -142h-77z" />
    <glyph glyph-name="Oacute" unicode="&#xd3;" horiz-adv-x="690" 
d="M198 28q-65 40 -102.5 118t-37.5 188t37.5 188t102.5 118t147 40t147 -40t102.5 -118t37.5 -188t-37.5 -188t-102.5 -118t-147 -40t-147 40zM484.5 132q53.5 68 53.5 202t-53.5 202t-139.5 68t-139.5 -68t-53.5 -202t53.5 -202t139.5 -68t139.5 68zM381 894h100
l-108 -142h-77z" />
    <glyph glyph-name="Ocircumflex" unicode="&#xd4;" horiz-adv-x="690" 
d="M198 28q-65 40 -102.5 118t-37.5 188t37.5 188t102.5 118t147 40t147 -40t102.5 -118t37.5 -188t-37.5 -188t-102.5 -118t-147 -40t-147 40zM484.5 132q53.5 68 53.5 202t-53.5 202t-139.5 68t-139.5 -68t-53.5 -202t53.5 -202t139.5 -68t139.5 68zM428 750l-83 86
l-83 -86h-80l119 136h87l119 -136h-79z" />
    <glyph glyph-name="Otilde" unicode="&#xd5;" horiz-adv-x="690" 
d="M198 28q-65 40 -102.5 118t-37.5 188t37.5 188t102.5 118t147 40t147 -40t102.5 -118t37.5 -188t-37.5 -188t-102.5 -118t-147 -40t-147 40zM484.5 132q53.5 68 53.5 202t-53.5 202t-139.5 68t-139.5 -68t-53.5 -202t53.5 -202t139.5 -68t139.5 68zM364.5 762.5
q-17.5 9.5 -38.5 27.5q-14 12 -24 18t-20 6q-34 0 -38 -57h-61q3 69 32 97.5t67 28.5q25 0 41.5 -8.5t38.5 -27.5q18 -16 26.5 -21t19.5 -5q32 0 38 57h60q-3 -70 -32 -97.5t-67 -27.5q-25 0 -42.5 9.5z" />
    <glyph glyph-name="Odieresis" unicode="&#xd6;" horiz-adv-x="690" 
d="M198 28q-65 40 -102.5 118t-37.5 188t37.5 188t102.5 118t147 40t147 -40t102.5 -118t37.5 -188t-37.5 -188t-102.5 -118t-147 -40t-147 40zM484.5 132q53.5 68 53.5 202t-53.5 202t-139.5 68t-139.5 -68t-53.5 -202t53.5 -202t139.5 -68t139.5 68zM196.5 761
q-16.5 16 -16.5 42t16.5 43t42.5 17q27 0 43 -16.5t16 -43.5q0 -26 -16 -42t-43 -16q-26 0 -42.5 16zM408.5 761q-16.5 16 -16.5 42t16.5 43t42.5 17t43 -17t17 -43q0 -25 -17 -41.5t-43 -16.5t-42.5 16z" />
    <glyph glyph-name="multiply" unicode="&#xd7;" 
d="M322 301l170 -180l-52 -52l-169 179l-169 -179l-52 51l171 181l-172 181l53 52l169 -179l170 179l52 -51z" />
    <glyph glyph-name="Oslash" unicode="&#xd8;" horiz-adv-x="693" 
d="M633 334q0 -110 -37 -188t-102 -118t-147 -40q-97 0 -170 56l-52 -72l-50 37l58 80q-73 90 -73 245q0 110 37.5 188t102.5 118t147 40q97 0 169 -55l46 64l51 -37l-52 -73q72 -93 72 -245zM207 536q-54 -68 -54 -202q0 -104 35 -171l279 395q-49 46 -120 46
q-86 0 -140 -68zM486.5 132q53.5 68 53.5 202q0 105 -34 170l-279 -395q50 -45 120 -45q86 0 139.5 68z" />
    <glyph glyph-name="Ugrave" unicode="&#xd9;" horiz-adv-x="643" 
d="M150.5 45q-62.5 57 -62.5 166v457h91v-443q0 -84 37 -122.5t109 -38.5q71 0 107.5 39t36.5 122v443h86v-457q0 -109 -63.5 -166t-171.5 -57q-107 0 -169.5 57zM297 752l-108 142h100l85 -142h-77z" />
    <glyph glyph-name="Uacute" unicode="&#xda;" horiz-adv-x="643" 
d="M150.5 45q-62.5 57 -62.5 166v457h91v-443q0 -84 37 -122.5t109 -38.5q71 0 107.5 39t36.5 122v443h86v-457q0 -109 -63.5 -166t-171.5 -57q-107 0 -169.5 57zM361 894h100l-108 -142h-77z" />
    <glyph glyph-name="Ucircumflex" unicode="&#xdb;" horiz-adv-x="643" 
d="M150.5 45q-62.5 57 -62.5 166v457h91v-443q0 -84 37 -122.5t109 -38.5q71 0 107.5 39t36.5 122v443h86v-457q0 -109 -63.5 -166t-171.5 -57q-107 0 -169.5 57zM408 750l-83 86l-83 -86h-80l119 136h87l119 -136h-79z" />
    <glyph glyph-name="Udieresis" unicode="&#xdc;" horiz-adv-x="643" 
d="M150.5 45q-62.5 57 -62.5 166v457h91v-443q0 -84 37 -122.5t109 -38.5q71 0 107.5 39t36.5 122v443h86v-457q0 -109 -63.5 -166t-171.5 -57q-107 0 -169.5 57zM175.5 761q-16.5 16 -16.5 42t16.5 43t42.5 17q27 0 43 -16.5t16 -43.5q0 -26 -16 -42t-43 -16
q-26 0 -42.5 16zM387.5 761q-16.5 16 -16.5 42t16.5 43t42.5 17t43 -17t17 -43q0 -25 -17 -41.5t-43 -16.5t-42.5 16z" />
    <glyph glyph-name="Yacute" unicode="&#xdd;" horiz-adv-x="597" 
d="M346 313v-313h-91v309l-234 359h106l148 -239q18 -29 25 -44h4q9 20 24 43l150 240h98zM338 894h100l-108 -142h-77z" />
    <glyph glyph-name="Thorn" unicode="&#xde;" horiz-adv-x="584" 
d="M470 494.5q64 -51.5 64 -147.5q0 -97 -64 -149t-167 -52h-118v-146h-91v668h91v-122h118q103 0 167 -51.5zM440 346q0 125 -141 125h-114v-252h114q141 0 141 127z" />
    <glyph glyph-name="germandbls" unicode="&#xdf;" horiz-adv-x="562" 
d="M470 332q41 -51 41 -131q0 -62 -25.5 -110t-70.5 -75t-102 -27q-35 0 -61 8l8 68q22 -6 41 -6q57 0 88 42.5t31 105.5q0 65 -33.5 107t-99.5 42h-14v68h7q50 0 77.5 28t27.5 78t-27 78t-79 28q-49 0 -78.5 -33t-29.5 -95v-508h-89v488q0 105 56 162t148 57q53 0 95 -21.5
t66 -60t24 -86.5q0 -58 -28 -93t-71 -48v-3q57 -12 98 -63z" />
    <glyph glyph-name="agrave" unicode="&#xe0;" horiz-adv-x="509" 
d="M440 0h-86l-4 54l-2 20h-4q-48 -84 -154 -84q-63 0 -102.5 35.5t-39.5 99.5q0 67 41.5 105.5t106.5 53.5q72 18 146 27v26q0 51 -23.5 74.5t-70.5 23.5q-39 0 -64 -18.5t-27 -46.5h-89q2 36 24.5 67t63 49t93.5 18q85 0 133.5 -45t48.5 -131v-201q0 -50 9 -127zM305 99.5
q37 39.5 37 103.5v50q-44 -6 -111 -24q-49 -12 -70.5 -35.5t-21.5 -59.5q0 -35 20.5 -54.5t54.5 -19.5q54 0 91 39.5zM222 578l-119 166h96l96 -166h-73z" />
    <glyph glyph-name="aacute" unicode="&#xe1;" horiz-adv-x="509" 
d="M440 0h-86l-4 54l-2 20h-4q-48 -84 -154 -84q-63 0 -102.5 35.5t-39.5 99.5q0 67 41.5 105.5t106.5 53.5q72 18 146 27v26q0 51 -23.5 74.5t-70.5 23.5q-39 0 -64 -18.5t-27 -46.5h-89q2 36 24.5 67t63 49t93.5 18q85 0 133.5 -45t48.5 -131v-201q0 -50 9 -127zM305 99.5
q37 39.5 37 103.5v50q-44 -6 -111 -24q-49 -12 -70.5 -35.5t-21.5 -59.5q0 -35 20.5 -54.5t54.5 -19.5q54 0 91 39.5zM295 744h96l-119 -166h-73z" />
    <glyph glyph-name="acircumflex" unicode="&#xe2;" horiz-adv-x="509" 
d="M440 0h-86l-4 54l-2 20h-4q-48 -84 -154 -84q-63 0 -102.5 35.5t-39.5 99.5q0 67 41.5 105.5t106.5 53.5q72 18 146 27v26q0 51 -23.5 74.5t-70.5 23.5q-39 0 -64 -18.5t-27 -46.5h-89q2 36 24.5 67t63 49t93.5 18q85 0 133.5 -45t48.5 -131v-201q0 -50 9 -127zM305 99.5
q37 39.5 37 103.5v50q-44 -6 -111 -24q-49 -12 -70.5 -35.5t-21.5 -59.5q0 -35 20.5 -54.5t54.5 -19.5q54 0 91 39.5zM326 578l-79 94l-80 -94h-75l115 147h79l116 -147h-76z" />
    <glyph glyph-name="atilde" unicode="&#xe3;" horiz-adv-x="509" 
d="M440 0h-86l-4 54l-2 20h-4q-48 -84 -154 -84q-63 0 -102.5 35.5t-39.5 99.5q0 67 41.5 105.5t106.5 53.5q72 18 146 27v26q0 51 -23.5 74.5t-70.5 23.5q-39 0 -64 -18.5t-27 -46.5h-89q2 36 24.5 67t63 49t93.5 18q85 0 133.5 -45t48.5 -131v-201q0 -50 9 -127zM305 99.5
q37 39.5 37 103.5v50q-44 -6 -111 -24q-49 -12 -70.5 -35.5t-21.5 -59.5q0 -35 20.5 -54.5t54.5 -19.5q54 0 91 39.5zM263 589q-17 11 -37 32q-11 13 -20 19.5t-19 6.5q-32 0 -36 -64h-59q3 73 30.5 102.5t64.5 29.5q26 0 42.5 -11t34.5 -31q13 -14 22 -21t20 -7
q14 0 23 13.5t13 50.5h59q-3 -73 -31 -102t-64 -29q-26 0 -43 11z" />
    <glyph glyph-name="adieresis" unicode="&#xe4;" horiz-adv-x="509" 
d="M440 0h-86l-4 54l-2 20h-4q-48 -84 -154 -84q-63 0 -102.5 35.5t-39.5 99.5q0 67 41.5 105.5t106.5 53.5q72 18 146 27v26q0 51 -23.5 74.5t-70.5 23.5q-39 0 -64 -18.5t-27 -46.5h-89q2 36 24.5 67t63 49t93.5 18q85 0 133.5 -45t48.5 -131v-201q0 -50 9 -127zM305 99.5
q37 39.5 37 103.5v50q-44 -6 -111 -24q-49 -12 -70.5 -35.5t-21.5 -59.5q0 -35 20.5 -54.5t54.5 -19.5q54 0 91 39.5zM107.5 602q-16.5 16 -16.5 41q0 26 16 42.5t42 16.5t42 -16.5t16 -42.5q0 -25 -16 -41t-42 -16q-25 0 -41.5 16zM303.5 602q-16.5 16 -16.5 41
q0 26 16 42.5t42 16.5t42 -16.5t16 -42.5q0 -25 -16 -41t-42 -16q-25 0 -41.5 16z" />
    <glyph glyph-name="aring" unicode="&#xe5;" horiz-adv-x="509" 
d="M440 0h-86l-4 54l-2 20h-4q-48 -84 -154 -84q-63 0 -102.5 35.5t-39.5 99.5q0 67 41.5 105.5t106.5 53.5q72 18 146 27v26q0 51 -23.5 74.5t-70.5 23.5q-39 0 -64 -18.5t-27 -46.5h-89q2 36 24.5 67t63 49t93.5 18q85 0 133.5 -45t48.5 -131v-201q0 -50 9 -127zM305 99.5
q37 39.5 37 103.5v50q-44 -6 -111 -24q-49 -12 -70.5 -35.5t-21.5 -59.5q0 -35 20.5 -54.5t54.5 -19.5q54 0 91 39.5zM164.5 591q-32.5 30 -32.5 74q0 45 32 75t82 30q51 0 83.5 -30t32.5 -75q0 -44 -33 -74t-83 -30q-49 0 -81.5 30zM287.5 625q16.5 16 16.5 40t-16 40.5
t-42 16.5q-25 0 -40.5 -16.5t-15.5 -40.5q0 -23 16 -39.5t40 -16.5q25 0 41.5 16z" />
    <glyph glyph-name="ae" unicode="&#xe6;" horiz-adv-x="812" 
d="M760 229h-333q4 -82 41.5 -125.5t103.5 -43.5q74 0 128 62l47 -51q-70 -81 -181 -81q-65 0 -114 29.5t-78 84.5h-6q-27 -55 -71 -84.5t-105 -29.5q-65 0 -104.5 34.5t-39.5 93.5q0 72 43.5 110t114.5 50q67 9 136 11v48q0 51 -23.5 74.5t-70.5 23.5q-39 0 -64 -18.5
t-27 -46.5h-89q2 36 24.5 67t63 49t93.5 18q105 0 146 -72h6q56 72 155 72q62 0 108.5 -29.5t72 -84t25.5 -127.5q0 -10 -2 -34zM469.5 399q-33.5 -38 -40.5 -110h246q-4 72 -35 110t-84 38t-86.5 -38zM305 99.5q37 39.5 37 103.5v28q-53 -1 -101 -9q-57 -9 -79.5 -32
t-22.5 -59q0 -33 20.5 -52t54.5 -19q54 0 91 39.5z" />
    <glyph glyph-name="ccedilla" unicode="&#xe7;" horiz-adv-x="494" 
d="M315 -6v-7q56 -41 56 -89q0 -40 -28 -63.5t-75 -23.5q-68 0 -106 53l36 34q14 -15 27.5 -23t30.5 -8q21 0 33.5 12t12.5 31q0 22 -12 41.5t-37 39.5q-59 4 -104.5 36t-71 88.5t-25.5 130.5q0 78 28 136.5t78 90t113 31.5q58 0 104 -25t74 -79l-67 -38q-19 37 -45.5 54
t-63.5 17q-58 0 -94 -49t-36 -138q0 -88 36 -136.5t94 -48.5q40 0 67 18.5t46 61.5l69 -34q-43 -97 -140 -113z" />
    <glyph glyph-name="egrave" unicode="&#xe8;" horiz-adv-x="527" 
d="M476 223h-334q5 -79 42.5 -121t102.5 -42q75 0 128 62l47 -51q-70 -81 -181 -81q-68 0 -119.5 30.5t-80.5 88.5t-29 137t28 137.5t77.5 89.5t113.5 31q62 0 108.5 -29.5t72 -84t25.5 -127.5q0 -28 -1 -40zM184 397q-34 -37 -41 -109h247q-4 72 -35 109t-84 37t-87 -37z
M239 578l-119 166h96l96 -166h-73z" />
    <glyph glyph-name="eacute" unicode="&#xe9;" horiz-adv-x="527" 
d="M476 223h-334q5 -79 42.5 -121t102.5 -42q75 0 128 62l47 -51q-70 -81 -181 -81q-68 0 -119.5 30.5t-80.5 88.5t-29 137t28 137.5t77.5 89.5t113.5 31q62 0 108.5 -29.5t72 -84t25.5 -127.5q0 -28 -1 -40zM184 397q-34 -37 -41 -109h247q-4 72 -35 109t-84 37t-87 -37z
M312 744h96l-119 -166h-73z" />
    <glyph glyph-name="ecircumflex" unicode="&#xea;" horiz-adv-x="527" 
d="M476 223h-334q5 -79 42.5 -121t102.5 -42q75 0 128 62l47 -51q-70 -81 -181 -81q-68 0 -119.5 30.5t-80.5 88.5t-29 137t28 137.5t77.5 89.5t113.5 31q62 0 108.5 -29.5t72 -84t25.5 -127.5q0 -28 -1 -40zM184 397q-34 -37 -41 -109h247q-4 72 -35 109t-84 37t-87 -37z
M343 578l-79 94l-80 -94h-75l115 147h79l116 -147h-76z" />
    <glyph glyph-name="edieresis" unicode="&#xeb;" horiz-adv-x="527" 
d="M476 223h-334q5 -79 42.5 -121t102.5 -42q75 0 128 62l47 -51q-70 -81 -181 -81q-68 0 -119.5 30.5t-80.5 88.5t-29 137t28 137.5t77.5 89.5t113.5 31q62 0 108.5 -29.5t72 -84t25.5 -127.5q0 -28 -1 -40zM184 397q-34 -37 -41 -109h247q-4 72 -35 109t-84 37t-87 -37z
M124.5 602q-16.5 16 -16.5 41q0 26 16 42.5t42 16.5t42 -16.5t16 -42.5q0 -25 -16 -41t-42 -16q-25 0 -41.5 16zM320.5 602q-16.5 16 -16.5 41q0 26 16 42.5t42 16.5t42 -16.5t16 -42.5q0 -25 -16 -41t-42 -16q-25 0 -41.5 16z" />
    <glyph glyph-name="igrave" unicode="&#xec;" horiz-adv-x="253" 
d="M171 494v-494h-89v494h89zM101 577l-119 166h96l96 -166h-73z" />
    <glyph glyph-name="iacute" unicode="&#xed;" horiz-adv-x="253" 
d="M171 494v-494h-89v494h89zM174 743h96l-119 -166h-73z" />
    <glyph glyph-name="icircumflex" unicode="&#xee;" horiz-adv-x="253" 
d="M260 577h-71l-62 92l-63 -92h-71l94 147h79zM82 494h89v-494h-89v494z" />
    <glyph glyph-name="idieresis" unicode="&#xef;" horiz-adv-x="253" 
d="M-1.5 601q-16.5 16 -16.5 41q0 26 16.5 42.5t42.5 16.5t42 -16.5t16 -42.5q0 -25 -16.5 -41t-41.5 -16q-26 0 -42.5 16zM171.5 601q-16.5 16 -16.5 41q0 26 16 42.5t42 16.5t42 -16.5t16 -42.5q0 -25 -16 -41t-42 -16q-25 0 -41.5 16zM171 494v-494h-89v494h89z" />
    <glyph glyph-name="eth" unicode="&#xf0;" horiz-adv-x="549" 
d="M459.5 431.5q34.5 -87.5 34.5 -178.5q0 -123 -58 -193t-162 -70q-102 0 -161.5 67t-59.5 179q0 68 24.5 123t69 86t101.5 31q87 0 133 -65l5 1q-31 78 -101 153l-125 -51l-19 48l106 43q-33 34 -79 66l62 43q51 -36 93 -78l103 42l20 -48l-86 -35q65 -76 99.5 -163.5z
M370.5 108q35.5 47 35.5 127q0 81 -36 127.5t-95 46.5q-60 0 -95.5 -46t-35.5 -129q0 -82 35 -127.5t96 -45.5q60 0 95.5 47z" />
    <glyph glyph-name="ntilde" unicode="&#xf1;" horiz-adv-x="549" 
d="M429.5 459.5q42.5 -44.5 42.5 -120.5v-339h-88v320q0 54 -21.5 83.5t-70.5 29.5q-51 0 -86 -38t-35 -101v-294h-89v494h85v-72h5q20 39 57 60.5t88 21.5q70 0 112.5 -44.5zM298 589q-17 11 -37 32q-11 13 -20 19.5t-19 6.5q-32 0 -36 -64h-59q3 73 30.5 102.5t64.5 29.5
q26 0 42.5 -11t34.5 -31q13 -14 22 -21t20 -7q14 0 23 13.5t13 50.5h59q-3 -73 -31 -102t-64 -29q-26 0 -43 11z" />
    <glyph glyph-name="ograve" unicode="&#xf2;" horiz-adv-x="554" 
d="M159 21q-51 31 -79 89.5t-28 136.5t28 136.5t79 89.5t118 31t118 -31t79 -89.5t28 -136.5t-28 -136.5t-79 -89.5t-118 -31t-118 31zM375 109.5q36 48.5 36 137.5t-36 137.5t-98 48.5t-98 -48.5t-36 -137.5t36 -137.5t98 -48.5t98 48.5zM252 578l-119 166h96l96 -166h-73z
" />
    <glyph glyph-name="oacute" unicode="&#xf3;" horiz-adv-x="554" 
d="M159 21q-51 31 -79 89.5t-28 136.5t28 136.5t79 89.5t118 31t118 -31t79 -89.5t28 -136.5t-28 -136.5t-79 -89.5t-118 -31t-118 31zM375 109.5q36 48.5 36 137.5t-36 137.5t-98 48.5t-98 -48.5t-36 -137.5t36 -137.5t98 -48.5t98 48.5zM325 744h96l-119 -166h-73z" />
    <glyph glyph-name="ocircumflex" unicode="&#xf4;" horiz-adv-x="554" 
d="M159 21q-51 31 -79 89.5t-28 136.5t28 136.5t79 89.5t118 31t118 -31t79 -89.5t28 -136.5t-28 -136.5t-79 -89.5t-118 -31t-118 31zM375 109.5q36 48.5 36 137.5t-36 137.5t-98 48.5t-98 -48.5t-36 -137.5t36 -137.5t98 -48.5t98 48.5zM356 578l-79 94l-80 -94h-75
l115 147h79l116 -147h-76z" />
    <glyph glyph-name="otilde" unicode="&#xf5;" horiz-adv-x="554" 
d="M159 21q-51 31 -79 89.5t-28 136.5t28 136.5t79 89.5t118 31t118 -31t79 -89.5t28 -136.5t-28 -136.5t-79 -89.5t-118 -31t-118 31zM375 109.5q36 48.5 36 137.5t-36 137.5t-98 48.5t-98 -48.5t-36 -137.5t36 -137.5t98 -48.5t98 48.5zM293 589q-17 11 -37 32
q-11 13 -20 19.5t-19 6.5q-32 0 -36 -64h-59q3 73 30.5 102.5t64.5 29.5q26 0 42.5 -11t34.5 -31q13 -14 22 -21t20 -7q14 0 23 13.5t13 50.5h59q-3 -73 -31 -102t-64 -29q-26 0 -43 11z" />
    <glyph glyph-name="odieresis" unicode="&#xf6;" horiz-adv-x="554" 
d="M159 21q-51 31 -79 89.5t-28 136.5t28 136.5t79 89.5t118 31t118 -31t79 -89.5t28 -136.5t-28 -136.5t-79 -89.5t-118 -31t-118 31zM375 109.5q36 48.5 36 137.5t-36 137.5t-98 48.5t-98 -48.5t-36 -137.5t36 -137.5t98 -48.5t98 48.5zM137.5 602q-16.5 16 -16.5 41
q0 26 16 42.5t42 16.5t42 -16.5t16 -42.5q0 -25 -16 -41t-42 -16q-25 0 -41.5 16zM333.5 602q-16.5 16 -16.5 41q0 26 16 42.5t42 16.5t42 -16.5t16 -42.5q0 -25 -16 -41t-42 -16q-25 0 -41.5 16z" />
    <glyph glyph-name="divide" unicode="&#xf7;" 
d="M229.5 445.5q-15.5 15.5 -15.5 39.5t15.5 39.5t40.5 15.5t40.5 -15.5t15.5 -39.5t-15.5 -39.5t-40.5 -15.5t-40.5 15.5zM38 338h466v-73h-466v73zM229.5 78q-15.5 15 -15.5 39q0 25 15.5 40.5t40.5 15.5t40.5 -15.5t15.5 -40.5q0 -24 -15.5 -39t-40.5 -15t-40.5 15z" />
    <glyph glyph-name="oslash" unicode="&#xf8;" horiz-adv-x="562" 
d="M506 247q0 -78 -28 -136.5t-79 -89.5t-118 -31q-77 0 -132 40l-51 -63l-45 38l54 67q-50 69 -50 175q0 79 27.5 137t78.5 89t118 31q76 0 131 -40l45 58l46 -38l-49 -61q52 -69 52 -176zM182 386q-37 -49 -37 -139q0 -61 19 -107l200 265q-34 30 -83 30q-62 0 -99 -49z
M381 108q37 49 37 139q0 63 -19 107l-201 -264q34 -31 83 -31q63 0 100 49z" />
    <glyph glyph-name="ugrave" unicode="&#xf9;" horiz-adv-x="550" 
d="M467 494v-494h-85v72h-5q-20 -39 -57 -60.5t-88 -21.5q-70 0 -112.5 44.5t-42.5 120.5v339h88v-320q0 -54 21.5 -83.5t70.5 -29.5q51 0 86 38t35 101v294h89zM249 578l-119 166h96l96 -166h-73z" />
    <glyph glyph-name="uacute" unicode="&#xfa;" horiz-adv-x="550" 
d="M467 494v-494h-85v72h-5q-20 -39 -57 -60.5t-88 -21.5q-70 0 -112.5 44.5t-42.5 120.5v339h88v-320q0 -54 21.5 -83.5t70.5 -29.5q51 0 86 38t35 101v294h89zM322 744h96l-119 -166h-73z" />
    <glyph glyph-name="ucircumflex" unicode="&#xfb;" horiz-adv-x="550" 
d="M467 494v-494h-85v72h-5q-20 -39 -57 -60.5t-88 -21.5q-70 0 -112.5 44.5t-42.5 120.5v339h88v-320q0 -54 21.5 -83.5t70.5 -29.5q51 0 86 38t35 101v294h89zM354 578l-79 94l-80 -94h-75l115 147h79l116 -147h-76z" />
    <glyph glyph-name="udieresis" unicode="&#xfc;" horiz-adv-x="550" 
d="M467 494v-494h-85v72h-5q-20 -39 -57 -60.5t-88 -21.5q-70 0 -112.5 44.5t-42.5 120.5v339h88v-320q0 -54 21.5 -83.5t70.5 -29.5q51 0 86 38t35 101v294h89zM134.5 602q-16.5 16 -16.5 41q0 26 16 42.5t42 16.5t42 -16.5t16 -42.5q0 -25 -16 -41t-42 -16q-25 0 -41.5 16
zM330.5 602q-16.5 16 -16.5 41q0 26 16 42.5t42 16.5t42 -16.5t16 -42.5q0 -25 -16 -41t-42 -16q-25 0 -41.5 16z" />
    <glyph glyph-name="yacute" unicode="&#xfd;" horiz-adv-x="496" 
d="M48 -182v71q35 -8 55 -8q28 0 46.5 20t34.5 67l22 61l-178 465h94l107 -309q11 -30 20 -70h4q7 34 19 70l108 309h89l-205 -553q-27 -73 -62 -101.5t-90 -28.5q-33 0 -64 7zM296 744h96l-119 -166h-73z" />
    <glyph glyph-name="thorn" unicode="&#xfe;" horiz-adv-x="570" 
d="M416 474.5q46 -29.5 73.5 -87.5t27.5 -139q0 -82 -27.5 -140.5t-73.5 -88t-101 -29.5q-98 0 -140 82h-4v-251h-89v874h89v-273h4q45 82 140 82q55 0 101 -29.5zM391.5 110q34.5 49 34.5 138t-34.5 137.5t-93.5 48.5t-94 -49.5t-35 -137.5t35 -137t94 -49t93.5 49z" />
    <glyph glyph-name="ydieresis" unicode="&#xff;" horiz-adv-x="496" 
d="M48 -182v71q35 -8 55 -8q28 0 46.5 20t34.5 67l22 61l-178 465h94l107 -309q11 -30 20 -70h4q7 34 19 70l108 309h89l-205 -553q-27 -73 -62 -101.5t-90 -28.5q-33 0 -64 7zM108.5 602q-16.5 16 -16.5 41q0 26 16 42.5t42 16.5t42 -16.5t16 -42.5q0 -25 -16 -41t-42 -16
q-25 0 -41.5 16zM304.5 602q-16.5 16 -16.5 41q0 26 16 42.5t42 16.5t42 -16.5t16 -42.5q0 -25 -16 -41t-42 -16q-25 0 -41.5 16z" />
    <glyph glyph-name="Amacron" unicode="&#x100;" horiz-adv-x="607" 
d="M431 170h-262l-54 -170h-88l225 668h103l225 -668h-95zM409 242l-87 275q-10 32 -18 71h-4q-7 -32 -20 -70l-88 -276h217zM147 846h314v-68h-314v68z" />
    <glyph glyph-name="amacron" unicode="&#x101;" horiz-adv-x="509" 
d="M440 0h-86l-4 54l-2 20h-4q-48 -84 -154 -84q-63 0 -102.5 35.5t-39.5 99.5q0 67 41.5 105.5t106.5 53.5q72 18 146 27v26q0 51 -23.5 74.5t-70.5 23.5q-39 0 -64 -18.5t-27 -46.5h-89q2 36 24.5 67t63 49t93.5 18q85 0 133.5 -45t48.5 -131v-201q0 -50 9 -127zM305 99.5
q37 39.5 37 103.5v50q-44 -6 -111 -24q-49 -12 -70.5 -35.5t-21.5 -59.5q0 -35 20.5 -54.5t54.5 -19.5q54 0 91 39.5zM98 667h299v-66h-299v66z" />
    <glyph glyph-name="Abreve" unicode="&#x102;" horiz-adv-x="607" 
d="M431 170h-262l-54 -170h-88l225 668h103l225 -668h-95zM409 242l-87 275q-10 32 -18 71h-4q-7 -32 -20 -70l-88 -276h217zM196 779.5q-41 36.5 -47 105.5h63q8 -43 31.5 -60.5t60.5 -17.5t60.5 17.5t31.5 60.5h63q-6 -69 -47 -105.5t-108 -36.5t-108 36.5z" />
    <glyph glyph-name="abreve" unicode="&#x103;" horiz-adv-x="509" 
d="M440 0h-86l-4 54l-2 20h-4q-48 -84 -154 -84q-63 0 -102.5 35.5t-39.5 99.5q0 67 41.5 105.5t106.5 53.5q72 18 146 27v26q0 51 -23.5 74.5t-70.5 23.5q-39 0 -64 -18.5t-27 -46.5h-89q2 36 24.5 67t63 49t93.5 18q85 0 133.5 -45t48.5 -131v-201q0 -50 9 -127zM305 99.5
q37 39.5 37 103.5v50q-44 -6 -111 -24q-49 -12 -70.5 -35.5t-21.5 -59.5q0 -35 20.5 -54.5t54.5 -19.5q54 0 91 39.5zM145.5 611.5q-39.5 37.5 -45.5 107.5h61q13 -84 86 -84q32 0 55 19.5t30 64.5h61q-6 -71 -45 -108t-101 -37t-101.5 37.5z" />
    <glyph glyph-name="Aogonek" unicode="&#x104;" horiz-adv-x="607" 
d="M431 170h-262l-54 -170h-88l225 668h103l225 -668h-95zM409 242l-87 275q-10 32 -18 71h-4q-7 -32 -20 -70l-88 -276h217zM408 -166.5q-29 23.5 -29 60.5q0 60 79 113l33 22l66 -8q-95 -55 -95 -105q0 -18 11 -28.5t29 -10.5q15 0 27 7.5t25 21.5l40 -43
q-22 -27 -47.5 -40t-63.5 -13q-46 0 -75 23.5z" />
    <glyph glyph-name="aogonek" unicode="&#x105;" horiz-adv-x="509" 
d="M458 -137q-37 -53 -97 -53q-43 0 -70 22.5t-27 57.5q0 33 22.5 61.5t66.5 58.5l-3 34q0 10 -2 30h-4q-48 -84 -154 -84q-63 0 -102.5 35.5t-39.5 99.5q0 67 41.5 105.5t106.5 53.5q72 18 146 27v26q0 51 -23.5 74.5t-70.5 23.5q-39 0 -64 -18.5t-27 -46.5h-89
q2 36 24.5 67t63 49t93.5 18q85 0 133.5 -45t48.5 -131v-201q0 -50 9 -127h-29q-66 -48 -66 -92q0 -17 8.5 -25t22.5 -8q13 0 23.5 7t21.5 20zM305 99.5q37 39.5 37 103.5v50q-44 -6 -111 -24q-49 -12 -70.5 -35.5t-21.5 -59.5q0 -35 20.5 -54.5t54.5 -19.5q54 0 91 39.5z
" />
    <glyph glyph-name="Cacute" unicode="&#x106;" horiz-adv-x="618" 
d="M203.5 132q51.5 -68 133.5 -68q122 0 166 137l75 -30q-30 -93 -94 -138t-150 -45q-77 0 -139.5 40t-99 118t-36.5 188t36 188t98.5 118t140.5 40q83 0 145.5 -42.5t91.5 -126.5l-73 -29q-44 122 -161 122q-82 0 -133.5 -68t-51.5 -202t51.5 -202zM368 894h100l-108 -142
h-77z" />
    <glyph glyph-name="cacute" unicode="&#x107;" horiz-adv-x="494" 
d="M157.5 21q-49.5 31 -77.5 89t-28 136t28 136.5t78 90t113 31.5q58 0 104 -25t74 -79l-67 -38q-19 37 -45.5 54t-63.5 17q-58 0 -94 -49t-36 -138q0 -88 36 -136.5t94 -48.5q40 0 67 18.5t46 61.5l69 -34q-52 -117 -184 -117q-64 0 -113.5 31zM313 744h96l-119 -166h-73z
" />
    <glyph glyph-name="Ccircumflex" unicode="&#x108;" horiz-adv-x="618" 
d="M203.5 132q51.5 -68 133.5 -68q122 0 166 137l75 -30q-30 -93 -94 -138t-150 -45q-77 0 -139.5 40t-99 118t-36.5 188t36 188t98.5 118t140.5 40q83 0 145.5 -42.5t91.5 -126.5l-73 -29q-44 122 -161 122q-82 0 -133.5 -68t-51.5 -202t51.5 -202zM415 750l-83 86l-83 -86
h-80l119 136h87l119 -136h-79z" />
    <glyph glyph-name="ccircumflex" unicode="&#x109;" horiz-adv-x="494" 
d="M157.5 21q-49.5 31 -77.5 89t-28 136t28 136.5t78 90t113 31.5q58 0 104 -25t74 -79l-67 -38q-19 37 -45.5 54t-63.5 17q-58 0 -94 -49t-36 -138q0 -88 36 -136.5t94 -48.5q40 0 67 18.5t46 61.5l69 -34q-52 -117 -184 -117q-64 0 -113.5 31zM344 578l-79 94l-80 -94h-75
l115 147h79l116 -147h-76z" />
    <glyph glyph-name="Cdotaccent" unicode="&#x10a;" horiz-adv-x="618" 
d="M203.5 132q51.5 -68 133.5 -68q122 0 166 137l75 -30q-30 -93 -94 -138t-150 -45q-77 0 -139.5 40t-99 118t-36.5 188t36 188t98.5 118t140.5 40q83 0 145.5 -42.5t91.5 -126.5l-73 -29q-44 122 -161 122q-82 0 -133.5 -68t-51.5 -202t51.5 -202zM288 759.5
q-18 17.5 -18 43.5q0 27 18 44.5t45 17.5t44.5 -17.5t17.5 -44.5q0 -26 -17.5 -43.5t-44.5 -17.5t-45 17.5z" />
    <glyph glyph-name="cdotaccent" unicode="&#x10b;" horiz-adv-x="494" 
d="M157.5 21q-49.5 31 -77.5 89t-28 136t28 136.5t78 90t113 31.5q58 0 104 -25t74 -79l-67 -38q-19 37 -45.5 54t-63.5 17q-58 0 -94 -49t-36 -138q0 -88 36 -136.5t94 -48.5q40 0 67 18.5t46 61.5l69 -34q-52 -117 -184 -117q-64 0 -113.5 31zM221 600q-17 17 -17 43
q0 27 17 44t44 17t43.5 -17t16.5 -44q0 -26 -16.5 -43t-43.5 -17t-44 17z" />
    <glyph glyph-name="Ccaron" unicode="&#x10c;" horiz-adv-x="618" 
d="M203.5 132q51.5 -68 133.5 -68q122 0 166 137l75 -30q-30 -93 -94 -138t-150 -45q-77 0 -139.5 40t-99 118t-36.5 188t36 188t98.5 118t140.5 40q83 0 145.5 -42.5t91.5 -126.5l-73 -29q-44 122 -161 122q-82 0 -133.5 -68t-51.5 -202t51.5 -202zM495 886l-119 -136h-87
l-119 136h80l83 -87l83 87h79z" />
    <glyph glyph-name="ccaron" unicode="&#x10d;" horiz-adv-x="494" 
d="M157.5 21q-49.5 31 -77.5 89t-28 136t28 136.5t78 90t113 31.5q58 0 104 -25t74 -79l-67 -38q-19 37 -45.5 54t-63.5 17q-58 0 -94 -49t-36 -138q0 -88 36 -136.5t94 -48.5q40 0 67 18.5t46 61.5l69 -34q-52 -117 -184 -117q-64 0 -113.5 31zM420 725l-116 -147h-79
l-115 147h75l80 -94l79 94h76z" />
    <glyph glyph-name="Dcaron" unicode="&#x10e;" horiz-adv-x="665" 
d="M456 631.5q70 -36.5 110 -111.5t40 -186t-40 -186t-110 -111.5t-162 -36.5h-200v668h200q92 0 162 -36.5zM452 139.5q61 64.5 61 194.5t-61 194.5t-167 64.5h-100v-518h100q106 0 167 64.5zM472 886l-119 -136h-87l-119 136h80l83 -87l83 87h79z" />
    <glyph glyph-name="dcaron" unicode="&#x10f;" horiz-adv-x="621" 
d="M399 695h89v-695h-85v79h-4q-44 -89 -144 -89q-55 0 -101 29.5t-73.5 87.5t-27.5 139q0 82 27.5 140.5t73.5 88t101 29.5q98 0 140 -82h4v273zM657 695l-38 -218h-61l16 218h83zM366 110q35 49 35 137t-35 137t-94 49t-93.5 -49t-34.5 -138q0 -88 34.5 -136.5t93.5 -48.5
t94 49z" />
    <glyph glyph-name="Dcroat" unicode="&#x110;" horiz-adv-x="687" 
d="M477.5 631.5q70.5 -36.5 110.5 -111.5t40 -186t-40 -186t-110.5 -111.5t-162.5 -36.5h-199v312h-93v62h93v294h199q92 0 162.5 -36.5zM474 139.5q61 64.5 61 194.5t-61 194.5t-167 64.5h-100v-219h150v-62h-150v-237h100q106 0 167 64.5z" />
    <glyph glyph-name="dcroat" unicode="&#x111;" horiz-adv-x="570" 
d="M559 555h-71v-555h-85v79h-4q-43 -89 -144 -89q-55 0 -101 29.5t-73.5 86t-27.5 134.5t27.5 134.5t73.5 86t101 29.5q98 0 141 -82h3v147h-207v54h207v86h89v-86h71v-54zM365.5 109q35.5 48 35.5 132q0 83 -35.5 131t-93.5 48t-93 -48t-35 -132t34.5 -131.5t93.5 -47.5
q58 0 93.5 48z" />
    <glyph glyph-name="Emacron" unicode="&#x112;" horiz-adv-x="550" 
d="M489 74v-74h-395v668h388v-74h-297v-214h278v-71h-278v-235h304zM132 846h314v-68h-314v68z" />
    <glyph glyph-name="emacron" unicode="&#x113;" horiz-adv-x="527" 
d="M476 223h-334q5 -79 42.5 -121t102.5 -42q75 0 128 62l47 -51q-70 -81 -181 -81q-68 0 -119.5 30.5t-80.5 88.5t-29 137t28 137.5t77.5 89.5t113.5 31q62 0 108.5 -29.5t72 -84t25.5 -127.5q0 -28 -1 -40zM184 397q-34 -37 -41 -109h247q-4 72 -35 109t-84 37t-87 -37z
M115 667h299v-66h-299v66z" />
    <glyph glyph-name="Ebreve" unicode="&#x114;" horiz-adv-x="550" 
d="M489 74v-74h-395v668h388v-74h-297v-214h278v-71h-278v-235h304zM181 779.5q-41 36.5 -47 105.5h63q8 -43 31.5 -60.5t60.5 -17.5t60.5 17.5t31.5 60.5h63q-6 -69 -47 -105.5t-108 -36.5t-108 36.5z" />
    <glyph glyph-name="ebreve" unicode="&#x115;" horiz-adv-x="527" 
d="M476 223h-334q5 -79 42.5 -121t102.5 -42q75 0 128 62l47 -51q-70 -81 -181 -81q-68 0 -119.5 30.5t-80.5 88.5t-29 137t28 137.5t77.5 89.5t113.5 31q62 0 108.5 -29.5t72 -84t25.5 -127.5q0 -28 -1 -40zM184 397q-34 -37 -41 -109h247q-4 72 -35 109t-84 37t-87 -37z
M162.5 611.5q-39.5 37.5 -45.5 107.5h61q13 -84 86 -84q32 0 55 19.5t30 64.5h61q-6 -71 -45 -108t-101 -37t-101.5 37.5z" />
    <glyph glyph-name="Edotaccent" unicode="&#x116;" horiz-adv-x="550" 
d="M489 74v-74h-395v668h388v-74h-297v-214h278v-71h-278v-235h304zM244 759.5q-18 17.5 -18 43.5q0 27 18 44.5t45 17.5t44.5 -17.5t17.5 -44.5q0 -26 -17.5 -43.5t-44.5 -17.5t-45 17.5z" />
    <glyph glyph-name="edotaccent" unicode="&#x117;" horiz-adv-x="527" 
d="M476 223h-334q5 -79 42.5 -121t102.5 -42q75 0 128 62l47 -51q-70 -81 -181 -81q-68 0 -119.5 30.5t-80.5 88.5t-29 137t28 137.5t77.5 89.5t113.5 31q62 0 108.5 -29.5t72 -84t25.5 -127.5q0 -28 -1 -40zM184 397q-34 -37 -41 -109h247q-4 72 -35 109t-84 37t-87 -37z
M220 600q-17 17 -17 43q0 27 17 44t44 17t43.5 -17t16.5 -44q0 -26 -16.5 -43t-43.5 -17t-44 17z" />
    <glyph glyph-name="Eogonek" unicode="&#x118;" horiz-adv-x="550" 
d="M502 -132q-40 -58 -116 -58q-52 0 -82 24.5t-30 66.5q0 54 64 95v4h-244v668h388v-74h-297v-214h278v-71h-278v-235h304v-74h-71q-30 -20 -44.5 -39.5t-14.5 -41.5q0 -18 11.5 -29t32.5 -11q31 0 57 30z" />
    <glyph glyph-name="eogonek" unicode="&#x119;" horiz-adv-x="527" 
d="M476 223h-334q5 -79 42.5 -121t102.5 -42q75 0 128 62l47 -51q-38 -44 -87 -63q-38 -25 -56.5 -47.5t-18.5 -45.5q0 -18 11 -29t32 -11q29 0 56 31l40 -39q-41 -57 -113 -57q-49 0 -78 23.5t-29 63.5q0 48 54 89v4q-66 2 -116 33t-77.5 88t-27.5 135q0 79 28 137.5
t77.5 89.5t113.5 31q62 0 108.5 -29.5t72 -84t25.5 -127.5q0 -28 -1 -40zM184 397q-34 -37 -41 -109h247q-4 72 -35 109t-84 37t-87 -37z" />
    <glyph glyph-name="Ecaron" unicode="&#x11a;" horiz-adv-x="550" 
d="M489 74v-74h-395v668h388v-74h-297v-214h278v-71h-278v-235h304zM452 886l-119 -136h-87l-119 136h80l83 -87l83 87h79z" />
    <glyph glyph-name="ecaron" unicode="&#x11b;" horiz-adv-x="527" 
d="M476 223h-334q5 -79 42.5 -121t102.5 -42q75 0 128 62l47 -51q-70 -81 -181 -81q-68 0 -119.5 30.5t-80.5 88.5t-29 137t28 137.5t77.5 89.5t113.5 31q62 0 108.5 -29.5t72 -84t25.5 -127.5q0 -28 -1 -40zM184 397q-34 -37 -41 -109h247q-4 72 -35 109t-84 37t-87 -37z
M419 725l-116 -147h-79l-115 147h75l80 -94l79 94h76z" />
    <glyph glyph-name="Gcircumflex" unicode="&#x11c;" horiz-adv-x="652" 
d="M585 337v-260q-44 -42 -103 -65.5t-130 -23.5q-84 0 -150.5 37.5t-105 115.5t-38.5 193q0 110 39 188t105 118t146 40q78 0 140.5 -35t94.5 -104l-70 -39q-50 102 -164 102q-89 0 -143.5 -68t-54.5 -202q0 -137 52.5 -204t146.5 -67q93 0 150 50v152h-162v72h247z
M429 750l-83 86l-83 -86h-80l119 136h87l119 -136h-79z" />
    <glyph glyph-name="gcircumflex" unicode="&#x11d;" horiz-adv-x="515" 
d="M434 49.5q51 -35.5 51 -94.5q0 -68 -61.5 -106.5t-168.5 -38.5q-105 0 -164.5 34.5t-59.5 94.5q0 44 35.5 75.5t82.5 41.5v4q-37 5 -57 23.5t-20 46.5q0 31 26.5 52t72.5 30v4q-48 13 -76 46.5t-28 81.5q0 74 51 117t132 43q39 0 70 -10h156v-63q-44 0 -91 6v-6
q49 -30 49 -94q0 -56 -40.5 -93.5t-106.5 -46.5q-70 -11 -100 -24t-30 -31q0 -14 13.5 -22.5t45 -14t93.5 -12.5q74 -8 125 -43.5zM178 414.5q-27 -26.5 -27 -69.5q0 -41 27 -66.5t72 -25.5q46 0 73 25.5t27 66.5q0 43 -27 69.5t-73 26.5q-45 0 -72 -26.5zM364 -107
q37 21 37 55q0 35 -37.5 56.5t-105.5 21.5q-69 0 -106 -21.5t-37 -56.5q0 -34 37 -55t106 -21t106 21zM331 578l-79 94l-80 -94h-75l115 147h79l116 -147h-76z" />
    <glyph glyph-name="Gbreve" unicode="&#x11e;" horiz-adv-x="652" 
d="M585 337v-260q-44 -42 -103 -65.5t-130 -23.5q-84 0 -150.5 37.5t-105 115.5t-38.5 193q0 110 39 188t105 118t146 40q78 0 140.5 -35t94.5 -104l-70 -39q-50 102 -164 102q-89 0 -143.5 -68t-54.5 -202q0 -137 52.5 -204t146.5 -67q93 0 150 50v152h-162v72h247z
M238 779.5q-41 36.5 -47 105.5h63q8 -43 31.5 -60.5t60.5 -17.5t60.5 17.5t31.5 60.5h63q-6 -69 -47 -105.5t-108 -36.5t-108 36.5z" />
    <glyph glyph-name="gbreve" unicode="&#x11f;" horiz-adv-x="515" 
d="M434 49.5q51 -35.5 51 -94.5q0 -68 -61.5 -106.5t-168.5 -38.5q-105 0 -164.5 34.5t-59.5 94.5q0 44 35.5 75.5t82.5 41.5v4q-37 5 -57 23.5t-20 46.5q0 31 26.5 52t72.5 30v4q-48 13 -76 46.5t-28 81.5q0 74 51 117t132 43q39 0 70 -10h156v-63q-44 0 -91 6v-6
q49 -30 49 -94q0 -56 -40.5 -93.5t-106.5 -46.5q-70 -11 -100 -24t-30 -31q0 -14 13.5 -22.5t45 -14t93.5 -12.5q74 -8 125 -43.5zM178 414.5q-27 -26.5 -27 -69.5q0 -41 27 -66.5t72 -25.5q46 0 73 25.5t27 66.5q0 43 -27 69.5t-73 26.5q-45 0 -72 -26.5zM364 -107
q37 21 37 55q0 35 -37.5 56.5t-105.5 21.5q-69 0 -106 -21.5t-37 -56.5q0 -34 37 -55t106 -21t106 21zM150.5 611.5q-39.5 37.5 -45.5 107.5h61q13 -84 86 -84q32 0 55 19.5t30 64.5h61q-6 -71 -45 -108t-101 -37t-101.5 37.5z" />
    <glyph glyph-name="Gdotaccent" unicode="&#x120;" horiz-adv-x="652" 
d="M585 337v-260q-44 -42 -103 -65.5t-130 -23.5q-84 0 -150.5 37.5t-105 115.5t-38.5 193q0 110 39 188t105 118t146 40q78 0 140.5 -35t94.5 -104l-70 -39q-50 102 -164 102q-89 0 -143.5 -68t-54.5 -202q0 -137 52.5 -204t146.5 -67q93 0 150 50v152h-162v72h247z
M301 759.5q-18 17.5 -18 43.5q0 27 18 44.5t45 17.5t44.5 -17.5t17.5 -44.5q0 -26 -17.5 -43.5t-44.5 -17.5t-45 17.5z" />
    <glyph glyph-name="gdotaccent" unicode="&#x121;" horiz-adv-x="515" 
d="M434 49.5q51 -35.5 51 -94.5q0 -68 -61.5 -106.5t-168.5 -38.5q-105 0 -164.5 34.5t-59.5 94.5q0 44 35.5 75.5t82.5 41.5v4q-37 5 -57 23.5t-20 46.5q0 31 26.5 52t72.5 30v4q-48 13 -76 46.5t-28 81.5q0 74 51 117t132 43q39 0 70 -10h156v-63q-44 0 -91 6v-6
q49 -30 49 -94q0 -56 -40.5 -93.5t-106.5 -46.5q-70 -11 -100 -24t-30 -31q0 -14 13.5 -22.5t45 -14t93.5 -12.5q74 -8 125 -43.5zM178 414.5q-27 -26.5 -27 -69.5q0 -41 27 -66.5t72 -25.5q46 0 73 25.5t27 66.5q0 43 -27 69.5t-73 26.5q-45 0 -72 -26.5zM364 -107
q37 21 37 55q0 35 -37.5 56.5t-105.5 21.5q-69 0 -106 -21.5t-37 -56.5q0 -34 37 -55t106 -21t106 21zM208 600q-17 17 -17 43q0 27 17 44t44 17t43.5 -17t16.5 -44q0 -26 -16.5 -43t-43.5 -17t-44 17z" />
    <glyph glyph-name="uni0122" unicode="&#x122;" horiz-adv-x="652" 
d="M585 337v-260q-44 -42 -103 -65.5t-130 -23.5q-84 0 -150.5 37.5t-105 115.5t-38.5 193q0 110 39 188t105 118t146 40q78 0 140.5 -35t94.5 -104l-70 -39q-50 102 -164 102q-89 0 -143.5 -68t-54.5 -202q0 -137 52.5 -204t146.5 -67q93 0 150 50v152h-162v72h247z
M398.5 -64.5q15.5 -17.5 15.5 -48.5q0 -34 -19 -71t-48 -66l-34 24q18 20 31.5 41.5t17.5 37.5q-3 -1 -8 -1q-24 0 -38.5 13.5t-14.5 36.5q0 22 14.5 36.5t39.5 14.5q28 0 43.5 -17.5z" />
    <glyph glyph-name="uni0123" unicode="&#x123;" horiz-adv-x="515" 
d="M434 49.5q51 -35.5 51 -94.5q0 -68 -61.5 -106.5t-168.5 -38.5q-105 0 -164.5 34.5t-59.5 94.5q0 44 35.5 75.5t82.5 41.5v4q-37 5 -57 23.5t-20 46.5q0 31 26.5 52t72.5 30v4q-48 13 -76 46.5t-28 81.5q0 74 51 117t132 43q39 0 70 -10h156v-63q-44 0 -91 6v-6
q49 -30 49 -94q0 -56 -40.5 -93.5t-106.5 -46.5q-70 -11 -100 -24t-30 -31q0 -14 13.5 -22.5t45 -14t93.5 -12.5q74 -8 125 -43.5zM178 414.5q-27 -26.5 -27 -69.5q0 -41 27 -66.5t72 -25.5q46 0 73 25.5t27 66.5q0 43 -27 69.5t-73 26.5q-45 0 -72 -26.5zM364 -107
q37 21 37 55q0 35 -37.5 56.5t-105.5 21.5q-69 0 -106 -21.5t-37 -56.5q0 -34 37 -55t106 -21t106 21zM288 661q14 -13 14 -35q0 -21 -14.5 -36t-37.5 -15q-27 0 -42 17.5t-15 48.5q0 33 18.5 68.5t46.5 64.5l32 -23q-18 -20 -31 -41.5t-16 -36.5q2 1 8 1q23 0 37 -13z" />
    <glyph glyph-name="Hcircumflex" unicode="&#x124;" horiz-adv-x="665" 
d="M570 668v-668h-91v307h-294v-307h-91v668h91v-286h294v286h91zM416 750l-83 86l-83 -86h-80l119 136h87l119 -136h-79z" />
    <glyph glyph-name="hcircumflex" unicode="&#x125;" horiz-adv-x="549" 
d="M430 459.5q42 -44.5 42 -120.5v-339h-88v320q0 54 -21.5 83.5t-70.5 29.5q-51 0 -86 -38t-35 -101v-294h-89v695h89v-267h4q20 36 56 56t87 20q70 0 112 -44.5zM338 777l-83 86l-83 -86h-80l119 136h87l119 -136h-79z" />
    <glyph glyph-name="Hbar" unicode="&#x126;" horiz-adv-x="699" 
d="M670 487h-82v-487h-91v303h-294v-303h-91v487h-83v61h83v120h91v-120h294v120h91v-120h82v-61zM497 487h-294v-109h294v109z" />
    <glyph glyph-name="hbar" unicode="&#x127;" horiz-adv-x="549" 
d="M430 445.5q42 -44.5 42 -120.5v-325h-88v307q0 54 -21.5 83t-70.5 29q-51 0 -86 -38t-35 -100v-281h-89v555h-71v54h71v86h89v-86h206v-54h-206v-141h4q20 36 56 56t87 20q70 0 112 -44.5z" />
    <glyph glyph-name="Itilde" unicode="&#x128;" horiz-adv-x="352" 
d="M101 800q-8 -12 -11 -45h-59q3 70 29 98.5t62 28.5q23 0 39 -10t32 -28q11 -12 19.5 -18t17.5 -6q13 0 20 11.5t11 45.5h58q-2 -70 -27.5 -98t-60.5 -28q-23 0 -40.5 10.5t-33.5 27.5q-11 12 -18.5 17.5t-16.5 5.5q-13 0 -21 -12zM297 596h-76v-524h76v-72h-242v72h75
v524h-75v72h242v-72z" />
    <glyph glyph-name="itilde" unicode="&#x129;" horiz-adv-x="253" 
d="M199.5 657.5q7.5 13.5 10.5 50.5h57q-1 -73 -27 -102t-60 -29q-24 0 -40 11.5t-34 32.5q-10 12 -17 18.5t-15 6.5q-30 0 -31 -64h-57q1 73 26.5 102.5t60.5 29.5q23 0 39 -11.5t32 -31.5q13 -15 19.5 -21t15.5 -6q13 0 20.5 13.5zM171 494v-494h-89v494h89z" />
    <glyph glyph-name="Imacron" unicode="&#x12a;" horiz-adv-x="352" 
d="M302 846v-68h-251v68h251zM297 596h-76v-524h76v-72h-242v72h75v524h-75v72h242v-72z" />
    <glyph glyph-name="imacron" unicode="&#x12b;" horiz-adv-x="253" 
d="M11 666h231v-66h-231v66zM171 494v-494h-89v494h89z" />
    <glyph glyph-name="Ibreve" unicode="&#x12c;" horiz-adv-x="352" 
d="M81 780q-34 35 -38 105h63q3 -42 21 -59t49 -17q30 0 48 17t22 59h63q-4 -70 -38 -105t-95 -35t-95 35zM297 596h-76v-524h76v-72h-242v72h75v524h-75v72h242v-72z" />
    <glyph glyph-name="ibreve" unicode="&#x12d;" horiz-adv-x="253" 
d="M34 609.5q-33 36.5 -36 108.5h61q7 -84 67 -84q61 0 68 84h61q-3 -72 -36 -108.5t-93 -36.5q-59 0 -92 36.5zM171 494v-494h-89v494h89z" />
    <glyph glyph-name="Iogonek" unicode="&#x12e;" horiz-adv-x="352" 
d="M303 -132q-40 -58 -116 -58q-52 0 -82 24.5t-30 66.5q0 54 64 95v4h-84v72h75v524h-75v72h242v-72h-76v-524h76v-72h-78q-30 -20 -44.5 -39.5t-14.5 -41.5q0 -18 11.5 -29t32.5 -11q31 0 57 30z" />
    <glyph glyph-name="iogonek" unicode="&#x12f;" horiz-adv-x="253" 
d="M83 599q-17 17 -17 43q0 27 17 44t44 17t43.5 -17t16.5 -44q0 -26 -16.5 -43t-43.5 -17t-44 17zM213 -135q-19 -27 -43 -41t-55 -14q-43 0 -70 23.5t-27 59.5q0 50 64 109v492h89v-494h-22q-52 -54 -52 -91q0 -17 9 -25.5t23 -8.5q24 0 45 28z" />
    <glyph glyph-name="Idotaccent" unicode="&#x130;" horiz-adv-x="352" 
d="M221 596v-524h76v-72h-242v72h75v524h-75v72h242v-72h-76zM131 759.5q-18 17.5 -18 43.5q0 27 18 44.5t45 17.5t44.5 -17.5t17.5 -44.5q0 -26 -17.5 -43.5t-44.5 -17.5t-45 17.5z" />
    <glyph glyph-name="dotlessi" unicode="&#x131;" horiz-adv-x="253" 
d="M171 494v-494h-89v494h89z" />
    <glyph glyph-name="Jcircumflex" unicode="&#x134;" horiz-adv-x="355" 
d="M350 752h-74l-59 79l-60 -79h-73l89 134h87zM170 668h91v-621q0 -79 -44 -121t-118 -42q-28 0 -48 2t-41 9v76q30 -11 70 -11q46 0 68 24.5t22 76.5v607z" />
    <glyph glyph-name="jcircumflex" unicode="&#x135;" horiz-adv-x="261" 
d="M268 577h-71l-62 92l-63 -92h-71l94 147h79zM90 494h88v-544q0 -139 -135 -139q-41 0 -75 8v71q35 -9 57 -9q35 0 50 19.5t15 63.5v530z" />
    <glyph glyph-name="uni0136" unicode="&#x136;" horiz-adv-x="587" 
d="M214 309h-29v-309h-91v668h91v-284h30l231 284h102l-264 -315l297 -353h-112zM350.5 -64.5q15.5 -17.5 15.5 -48.5q0 -34 -19 -71t-48 -66l-34 24q18 20 31.5 41.5t17.5 37.5q-3 -1 -8 -1q-24 0 -38.5 13.5t-14.5 36.5q0 22 14.5 36.5t39.5 14.5q28 0 43.5 -17.5z" />
    <glyph glyph-name="uni0137" unicode="&#x137;" horiz-adv-x="495" 
d="M201 235h-30v-235h-89v695h89v-392h28l163 191h99l-193 -218l220 -276h-106zM303 -64.5q15 -17.5 15 -48.5q0 -33 -18.5 -68.5t-46.5 -64.5l-32 23q18 20 31 41.5t16 36.5q-2 -1 -8 -1q-23 0 -37 13t-14 35t14.5 36.5t37.5 14.5q27 0 42 -17.5z" />
    <glyph glyph-name="Lacute" unicode="&#x139;" horiz-adv-x="508" 
d="M472 75v-75h-378v668h91v-593h287zM179 894h100l-108 -142h-77z" />
    <glyph glyph-name="lacute" unicode="&#x13a;" horiz-adv-x="271" 
d="M240 -2q-26 -8 -65 -8q-43 0 -69 23.5t-26 73.5v608h89v-587q0 -48 34 -48q19 0 37 6v-68zM161 921h100l-108 -142h-77z" />
    <glyph glyph-name="uni013B" unicode="&#x13b;" horiz-adv-x="508" 
d="M472 75v-75h-378v668h91v-593h287zM324.5 -64.5q15.5 -17.5 15.5 -48.5q0 -34 -19 -71t-48 -66l-34 24q18 20 31.5 41.5t17.5 37.5q-3 -1 -8 -1q-24 0 -38.5 13.5t-14.5 36.5q0 22 14.5 36.5t39.5 14.5q28 0 43.5 -17.5z" />
    <glyph glyph-name="uni013C" unicode="&#x13c;" horiz-adv-x="271" 
d="M240 -2q-26 -8 -65 -8q-43 0 -69 23.5t-26 73.5v608h89v-587q0 -48 34 -48q19 0 37 6v-68zM199 -64.5q15 -17.5 15 -48.5q0 -33 -18.5 -68.5t-46.5 -64.5l-32 23q18 20 31 41.5t16 36.5q-2 -1 -8 -1q-23 0 -37 13t-14 35t14.5 36.5t37.5 14.5q27 0 42 -17.5z" />
    <glyph glyph-name="Lcaron" unicode="&#x13d;" horiz-adv-x="513" 
d="M472 75v-75h-378v668h91v-593h287zM384 450h-61l17 218h82z" />
    <glyph glyph-name="lcaron" unicode="&#x13e;" horiz-adv-x="314" 
d="M240 -2q-26 -8 -65 -8q-43 0 -69 23.5t-26 73.5v608h89v-587q0 -48 34 -48q19 0 37 6v-68zM256 695h82l-38 -218h-61z" />
    <glyph glyph-name="Ldot" unicode="&#x13f;" horiz-adv-x="513" 
d="M472 75v-75h-378v668h91v-593h287zM352.5 319.5q-15.5 15.5 -15.5 39.5t15.5 39.5t40.5 15.5t41 -15.5t16 -39.5t-16 -39.5t-41 -15.5t-40.5 15.5z" />
    <glyph glyph-name="ldot" unicode="&#x140;" horiz-adv-x="358" 
d="M240 -2q-26 -8 -65 -8q-43 0 -69 23.5t-26 73.5v608h89v-587q0 -48 34 -48q19 0 37 6v-68zM264 319.5q-15 15.5 -15 39.5t15 39.5t39 15.5t39.5 -15.5t15.5 -39.5t-15.5 -39.5t-39.5 -15.5t-39 15.5z" />
    <glyph glyph-name="Lslash" unicode="&#x141;" horiz-adv-x="549" 
d="M513 75v-75h-378v276l-92 -41v67l92 41v325h91v-290l147 67v-67l-147 -67v-236h287z" />
    <glyph glyph-name="lslash" unicode="&#x142;" horiz-adv-x="326" 
d="M200 341v-233q0 -26 10 -37t25 -11q17 0 37 6v-68q-26 -8 -66 -8q-43 0 -68.5 23.5t-25.5 73.5v220l-70 -31v58l70 32v329h88v-294l76 34v-59z" />
    <glyph glyph-name="Nacute" unicode="&#x143;" horiz-adv-x="671" 
d="M94 668h110l249 -478q2 -5 15 -29.5t21 -47.5h4q-3 44 -3 87v468h87v-668h-112l-248 478q-25 49 -35 77h-4q3 -42 3 -87v-468h-87v668zM386 894h100l-108 -142h-77z" />
    <glyph glyph-name="nacute" unicode="&#x144;" horiz-adv-x="549" 
d="M429.5 459.5q42.5 -44.5 42.5 -120.5v-339h-88v320q0 54 -21.5 83.5t-70.5 29.5q-51 0 -86 -38t-35 -101v-294h-89v494h85v-72h5q20 39 57 60.5t88 21.5q70 0 112.5 -44.5zM329 744h96l-119 -166h-73z" />
    <glyph glyph-name="uni0145" unicode="&#x145;" horiz-adv-x="671" 
d="M94 668h110l249 -478q2 -5 15 -29.5t21 -47.5h4q-3 44 -3 87v468h87v-668h-112l-248 478q-25 49 -35 77h-4q3 -42 3 -87v-468h-87v668zM377.5 -64.5q15.5 -17.5 15.5 -48.5q0 -34 -19 -71t-48 -66l-34 24q18 20 31.5 41.5t17.5 37.5q-3 -1 -8 -1q-24 0 -38.5 13.5
t-14.5 36.5q0 22 14.5 36.5t39.5 14.5q28 0 43.5 -17.5z" />
    <glyph glyph-name="uni0146" unicode="&#x146;" horiz-adv-x="549" 
d="M429.5 459.5q42.5 -44.5 42.5 -120.5v-339h-88v320q0 54 -21.5 83.5t-70.5 29.5q-51 0 -86 -38t-35 -101v-294h-89v494h85v-72h5q20 39 57 60.5t88 21.5q70 0 112.5 -44.5zM316 -64.5q15 -17.5 15 -48.5q0 -33 -18.5 -68.5t-46.5 -64.5l-32 23q18 20 31 41.5t16 36.5
q-2 -1 -8 -1q-23 0 -37 13t-14 35t14.5 36.5t37.5 14.5q27 0 42 -17.5z" />
    <glyph glyph-name="Ncaron" unicode="&#x147;" horiz-adv-x="671" 
d="M94 668h110l249 -478q2 -5 15 -29.5t21 -47.5h4q-3 44 -3 87v468h87v-668h-112l-248 478q-25 49 -35 77h-4q3 -42 3 -87v-468h-87v668zM513 886l-119 -136h-87l-119 136h80l83 -87l83 87h79z" />
    <glyph glyph-name="ncaron" unicode="&#x148;" horiz-adv-x="549" 
d="M429.5 459.5q42.5 -44.5 42.5 -120.5v-339h-88v320q0 54 -21.5 83.5t-70.5 29.5q-51 0 -86 -38t-35 -101v-294h-89v494h85v-72h5q20 39 57 60.5t88 21.5q70 0 112.5 -44.5zM437 725l-116 -147h-79l-115 147h75l80 -94l79 94h76z" />
    <glyph glyph-name="Eng" unicode="&#x14a;" horiz-adv-x="672" 
d="M578 668v-666q0 -80 -43.5 -121.5t-117.5 -41.5q-24 0 -43 2t-40 9v66q32 -11 67 -11q43 0 64.5 19.5t24.5 62.5l-272 493q-26 46 -35 74h-4q2 -50 2 -83v-471h-87v668h111l251 -461q26 -48 34 -73h4q-3 44 -3 82v452h87z" />
    <glyph glyph-name="eng" unicode="&#x14b;" horiz-adv-x="549" 
d="M429.5 459.5q42.5 -44.5 42.5 -120.5v-389q0 -139 -135 -139q-41 0 -76 8v71q35 -9 58 -9q34 0 49.5 19.5t15.5 63.5v356q0 54 -21.5 83.5t-70.5 29.5q-51 0 -86 -38t-35 -101v-294h-89v494h85v-72h5q20 39 57 60.5t88 21.5q70 0 112.5 -44.5z" />
    <glyph glyph-name="Omacron" unicode="&#x14c;" horiz-adv-x="690" 
d="M198 28q-65 40 -102.5 118t-37.5 188t37.5 188t102.5 118t147 40t147 -40t102.5 -118t37.5 -188t-37.5 -188t-102.5 -118t-147 -40t-147 40zM484.5 132q53.5 68 53.5 202t-53.5 202t-139.5 68t-139.5 -68t-53.5 -202t53.5 -202t139.5 -68t139.5 68zM188 846h314v-68h-314
v68z" />
    <glyph glyph-name="omacron" unicode="&#x14d;" horiz-adv-x="554" 
d="M159 21q-51 31 -79 89.5t-28 136.5t28 136.5t79 89.5t118 31t118 -31t79 -89.5t28 -136.5t-28 -136.5t-79 -89.5t-118 -31t-118 31zM375 109.5q36 48.5 36 137.5t-36 137.5t-98 48.5t-98 -48.5t-36 -137.5t36 -137.5t98 -48.5t98 48.5zM128 667h299v-66h-299v66z" />
    <glyph glyph-name="Obreve" unicode="&#x14e;" horiz-adv-x="690" 
d="M198 28q-65 40 -102.5 118t-37.5 188t37.5 188t102.5 118t147 40t147 -40t102.5 -118t37.5 -188t-37.5 -188t-102.5 -118t-147 -40t-147 40zM484.5 132q53.5 68 53.5 202t-53.5 202t-139.5 68t-139.5 -68t-53.5 -202t53.5 -202t139.5 -68t139.5 68zM237 779.5
q-41 36.5 -47 105.5h63q8 -43 31.5 -60.5t60.5 -17.5t60.5 17.5t31.5 60.5h63q-6 -69 -47 -105.5t-108 -36.5t-108 36.5z" />
    <glyph glyph-name="obreve" unicode="&#x14f;" horiz-adv-x="554" 
d="M159 21q-51 31 -79 89.5t-28 136.5t28 136.5t79 89.5t118 31t118 -31t79 -89.5t28 -136.5t-28 -136.5t-79 -89.5t-118 -31t-118 31zM375 109.5q36 48.5 36 137.5t-36 137.5t-98 48.5t-98 -48.5t-36 -137.5t36 -137.5t98 -48.5t98 48.5zM175.5 611.5
q-39.5 37.5 -45.5 107.5h61q13 -84 86 -84q32 0 55 19.5t30 64.5h61q-6 -71 -45 -108t-101 -37t-101.5 37.5z" />
    <glyph glyph-name="Ohungarumlaut" unicode="&#x150;" horiz-adv-x="690" 
d="M198 28q-65 40 -102.5 118t-37.5 188t37.5 188t102.5 118t147 40t147 -40t102.5 -118t37.5 -188t-37.5 -188t-102.5 -118t-147 -40t-147 40zM484.5 132q53.5 68 53.5 202t-53.5 202t-139.5 68t-139.5 -68t-53.5 -202t53.5 -202t139.5 -68t139.5 68zM289 886h93l-97 -134
h-78zM472 886h97l-105 -134h-75z" />
    <glyph glyph-name="ohungarumlaut" unicode="&#x151;" horiz-adv-x="554" 
d="M159 21q-51 31 -79 89.5t-28 136.5t28 136.5t79 89.5t118 31t118 -31t79 -89.5t28 -136.5t-28 -136.5t-79 -89.5t-118 -31t-118 31zM375 109.5q36 48.5 36 137.5t-36 137.5t-98 48.5t-98 -48.5t-36 -137.5t36 -137.5t98 -48.5t98 48.5zM240 725h89l-105 -147h-76z
M411 725h96l-116 -147h-73z" />
    <glyph glyph-name="OE" unicode="&#x152;" horiz-adv-x="968" 
d="M906 75v-75h-383v100h-3q-30 -56 -79.5 -84t-113.5 -28q-76 0 -136.5 39t-96 117t-35.5 190t35.5 190t96 117t136.5 39q64 0 113.5 -28t79.5 -84h3v100h377v-75h-290v-213h273v-72h-273v-233h296zM471.5 132q50.5 68 50.5 202t-50.5 202t-133.5 68q-84 0 -134.5 -68
t-50.5 -202t50.5 -202t134.5 -68q83 0 133.5 68z" />
    <glyph glyph-name="oe" unicode="&#x153;" horiz-adv-x="846" 
d="M794 229h-313q8 -169 126 -169q73 0 127 62l47 -51q-34 -39 -79 -60t-99 -21q-111 0 -163 89h-6q-53 -89 -166 -89q-101 0 -158 68.5t-57 188.5t57 188.5t158 68.5q58 0 102 -26.5t65 -70.5h6q21 44 64 70.5t95 26.5q90 0 143 -65.5t53 -175.5q0 -10 -2 -34zM520.5 399
q-30.5 -38 -37.5 -110h226q-4 72 -32 110t-77 38t-79.5 -38zM360.5 108.5q31.5 47.5 31.5 138.5t-31.5 138.5t-92.5 47.5t-92.5 -47.5t-31.5 -138.5t31.5 -138.5t92.5 -47.5t92.5 47.5z" />
    <glyph glyph-name="Racute" unicode="&#x154;" horiz-adv-x="594" 
d="M285 282h-100v-282h-91v668h208q96 0 158.5 -49.5t62.5 -142.5q0 -73 -40 -120.5t-106 -64.5l186 -291h-109zM185 353h113q62 0 97 29.5t35 91.5q0 60 -35 90t-97 30h-113v-241zM320 894h100l-108 -142h-77z" />
    <glyph glyph-name="racute" unicode="&#x155;" horiz-adv-x="368" 
d="M340 500v-80q-16 3 -47 3q-53 0 -87.5 -43.5t-34.5 -124.5v-255h-89v494h85v-82h4q19 43 52 67.5t78 24.5q23 0 39 -4zM248 744h96l-119 -166h-73z" />
    <glyph glyph-name="uni0156" unicode="&#x156;" horiz-adv-x="594" 
d="M285 282h-100v-282h-91v668h208q96 0 158.5 -49.5t62.5 -142.5q0 -73 -40 -120.5t-106 -64.5l186 -291h-109zM185 353h113q62 0 97 29.5t35 91.5q0 60 -35 90t-97 30h-113v-241zM346.5 -64.5q15.5 -17.5 15.5 -48.5q0 -34 -19 -71t-48 -66l-34 24q18 20 31.5 41.5
t17.5 37.5q-3 -1 -8 -1q-24 0 -38.5 13.5t-14.5 36.5q0 22 14.5 36.5t39.5 14.5q28 0 43.5 -17.5z" />
    <glyph glyph-name="uni0157" unicode="&#x157;" horiz-adv-x="368" 
d="M340 500v-80q-16 3 -47 3q-53 0 -87.5 -43.5t-34.5 -124.5v-255h-89v494h85v-82h4q19 43 52 67.5t78 24.5q23 0 39 -4zM168 -64.5q15 -17.5 15 -48.5q0 -33 -18.5 -68.5t-46.5 -64.5l-32 23q18 20 31 41.5t16 36.5q-2 -1 -8 -1q-23 0 -37 13t-14 35t14.5 36.5t37.5 14.5
q27 0 42 -17.5z" />
    <glyph glyph-name="Rcaron" unicode="&#x158;" horiz-adv-x="594" 
d="M285 282h-100v-282h-91v668h208q96 0 158.5 -49.5t62.5 -142.5q0 -73 -40 -120.5t-106 -64.5l186 -291h-109zM185 353h113q62 0 97 29.5t35 91.5q0 60 -35 90t-97 30h-113v-241zM447 886l-119 -136h-87l-119 136h80l83 -87l83 87h79z" />
    <glyph glyph-name="rcaron" unicode="&#x159;" horiz-adv-x="368" 
d="M340 500v-80q-16 3 -47 3q-53 0 -87.5 -43.5t-34.5 -124.5v-255h-89v494h85v-82h4q19 43 52 67.5t78 24.5q23 0 39 -4zM356 725l-116 -147h-79l-115 147h75l80 -94l79 94h76z" />
    <glyph glyph-name="Sacute" unicode="&#x15a;" horiz-adv-x="562" 
d="M174 84q50 -21 101 -21q68 0 107.5 27t39.5 77q0 33 -16.5 55t-41 35.5t-67.5 32.5l-81 35q-149 62 -149 179q0 49 26 89t74 63.5t110 23.5q65 0 121 -22.5t98 -62.5l-47 -58q-33 32 -76 50t-92 18q-58 0 -90 -27t-32 -68q0 -42 26.5 -68t78.5 -47l85 -36q76 -32 120 -72
t44 -112q0 -87 -66 -137t-169 -50q-71 0 -131.5 25t-105.5 73l47 58q36 -39 86 -60zM317 894h100l-108 -142h-77z" />
    <glyph glyph-name="sacute" unicode="&#x15b;" horiz-adv-x="462" 
d="M152.5 77q34.5 -17 75.5 -17q103 0 103 68q0 32 -22.5 49t-74.5 34l-59 21q-118 43 -118 138q0 58 45.5 96t121.5 38q110 0 178 -70l-47 -53q-56 53 -127 53q-42 0 -64.5 -17t-22.5 -43q0 -27 19.5 -43.5t58.5 -30.5l60 -22q41 -15 69 -31.5t47.5 -44.5t19.5 -70
q0 -64 -50.5 -103t-133.5 -39q-118 0 -192 85l47 52q32 -33 66.5 -50zM275 744h96l-119 -166h-73z" />
    <glyph glyph-name="Scircumflex" unicode="&#x15c;" horiz-adv-x="562" 
d="M174 84q50 -21 101 -21q68 0 107.5 27t39.5 77q0 33 -16.5 55t-41 35.5t-67.5 32.5l-81 35q-149 62 -149 179q0 49 26 89t74 63.5t110 23.5q65 0 121 -22.5t98 -62.5l-47 -58q-33 32 -76 50t-92 18q-58 0 -90 -27t-32 -68q0 -42 26.5 -68t78.5 -47l85 -36q76 -32 120 -72
t44 -112q0 -87 -66 -137t-169 -50q-71 0 -131.5 25t-105.5 73l47 58q36 -39 86 -60zM364 750l-83 86l-83 -86h-80l119 136h87l119 -136h-79z" />
    <glyph glyph-name="scircumflex" unicode="&#x15d;" horiz-adv-x="462" 
d="M152.5 77q34.5 -17 75.5 -17q103 0 103 68q0 32 -22.5 49t-74.5 34l-59 21q-118 43 -118 138q0 58 45.5 96t121.5 38q110 0 178 -70l-47 -53q-56 53 -127 53q-42 0 -64.5 -17t-22.5 -43q0 -27 19.5 -43.5t58.5 -30.5l60 -22q41 -15 69 -31.5t47.5 -44.5t19.5 -70
q0 -64 -50.5 -103t-133.5 -39q-118 0 -192 85l47 52q32 -33 66.5 -50zM306 578l-79 94l-80 -94h-75l115 147h79l116 -147h-76z" />
    <glyph glyph-name="Scedilla" unicode="&#x15e;" horiz-adv-x="562" 
d="M463 52q-50 -48 -133 -60v-6q56 -39 56 -85q0 -42 -29 -66.5t-78 -24.5q-37 0 -65 15t-45 40l39 37q12 -15 26 -23t32 -8q22 0 34.5 11.5t12.5 30.5q0 37 -44 75q-68 2 -126.5 27t-101.5 71l47 58q36 -39 86 -60t101 -21q68 0 107.5 27t39.5 77q0 33 -16.5 55t-41 35.5
t-67.5 32.5l-81 35q-149 62 -149 179q0 49 26 89t74 63.5t110 23.5q65 0 121 -22.5t98 -62.5l-47 -58q-33 32 -76 50t-92 18q-58 0 -90 -27t-32 -68q0 -42 26.5 -68t78.5 -47l85 -36q76 -32 120 -72t44 -112q0 -75 -50 -123z" />
    <glyph glyph-name="scedilla" unicode="&#x15f;" horiz-adv-x="462" 
d="M378.5 41.5q-36.5 -36.5 -99.5 -47.5v-7q56 -41 56 -89q0 -40 -28 -63.5t-75 -23.5q-68 0 -106 53l36 34q14 -15 27.5 -23t30.5 -8q21 0 33.5 12t12.5 31q0 41 -48 80q-109 6 -179 85l47 52q32 -33 66.5 -50t75.5 -17q103 0 103 68q0 32 -22.5 49t-74.5 34l-59 21
q-118 43 -118 138q0 58 45.5 96t121.5 38q110 0 178 -70l-47 -53q-56 53 -127 53q-42 0 -64.5 -17t-22.5 -43q0 -27 19.5 -43.5t58.5 -30.5l60 -22q41 -15 69 -31.5t47.5 -44.5t19.5 -70q0 -54 -36.5 -90.5z" />
    <glyph glyph-name="Scaron" unicode="&#x160;" horiz-adv-x="562" 
d="M174 84q50 -21 101 -21q68 0 107.5 27t39.5 77q0 33 -16.5 55t-41 35.5t-67.5 32.5l-81 35q-149 62 -149 179q0 49 26 89t74 63.5t110 23.5q65 0 121 -22.5t98 -62.5l-47 -58q-33 32 -76 50t-92 18q-58 0 -90 -27t-32 -68q0 -42 26.5 -68t78.5 -47l85 -36q76 -32 120 -72
t44 -112q0 -87 -66 -137t-169 -50q-71 0 -131.5 25t-105.5 73l47 58q36 -39 86 -60zM444 886l-119 -136h-87l-119 136h80l83 -87l83 87h79z" />
    <glyph glyph-name="scaron" unicode="&#x161;" horiz-adv-x="462" 
d="M152.5 77q34.5 -17 75.5 -17q103 0 103 68q0 32 -22.5 49t-74.5 34l-59 21q-118 43 -118 138q0 58 45.5 96t121.5 38q110 0 178 -70l-47 -53q-56 53 -127 53q-42 0 -64.5 -17t-22.5 -43q0 -27 19.5 -43.5t58.5 -30.5l60 -22q41 -15 69 -31.5t47.5 -44.5t19.5 -70
q0 -64 -50.5 -103t-133.5 -39q-118 0 -192 85l47 52q32 -33 66.5 -50zM382 725l-116 -147h-79l-115 147h75l80 -94l79 94h76z" />
    <glyph glyph-name="uni0162" unicode="&#x162;" horiz-adv-x="543" 
d="M309 0v-3q61 -41 61 -98q0 -41 -28 -65t-77 -24q-37 0 -64 15t-44 40l38 36q13 -15 26.5 -23t30.5 -8q22 0 33.5 11.5t11.5 30.5q0 50 -50 88h-21v593h-191v75h473v-75h-191v-593h-8z" />
    <glyph glyph-name="uni0163" unicode="&#x163;" horiz-adv-x="361" 
d="M264 -9v-4q56 -41 56 -89q0 -40 -28 -63.5t-75 -23.5q-68 0 -106 53l36 34q14 -15 27.5 -23t30.5 -8q21 0 33.5 12t12.5 31q0 42 -52 83q-38 8 -60 37t-22 80v316h-91v68h91v102l88 34v-136h117v-68h-117v-294q0 -39 11.5 -55.5t38.5 -16.5q20 0 36 3.5t36 11.5v-68
q-26 -12 -63 -16z" />
    <glyph glyph-name="Tcaron" unicode="&#x164;" horiz-adv-x="543" 
d="M508 593h-191v-593h-91v593h-191v75h473v-75zM434 886l-119 -136h-87l-119 136h80l83 -87l83 87h79z" />
    <glyph glyph-name="tcaron" unicode="&#x165;" horiz-adv-x="361" 
d="M366 772l-35 -198h-63l15 198h83zM216.5 76.5q11.5 -16.5 38.5 -16.5q20 0 36 3.5t36 11.5v-68q-39 -17 -97 -17q-51 0 -82 29.5t-31 90.5v316h-91v68h91v102l88 34v-136h117v-68h-117v-294q0 -39 11.5 -55.5z" />
    <glyph glyph-name="Tbar" unicode="&#x166;" horiz-adv-x="559" 
d="M325 593v-227h128v-61h-128v-305h-91v305h-127v61h127v227h-191v75h473v-75h-191z" />
    <glyph glyph-name="tbar" unicode="&#x167;" horiz-adv-x="369" 
d="M296 63.5q16 3.5 36 11.5v-68q-39 -17 -97 -17q-52 0 -83 29.5t-31 90.5v128h-78v55h78v133h-90v68h90v102l89 34v-136h116v-68h-116v-133h104v-55h-104v-106q0 -39 11.5 -55.5t38.5 -16.5q20 0 36 3.5z" />
    <glyph glyph-name="Utilde" unicode="&#x168;" horiz-adv-x="643" 
d="M150.5 45q-62.5 57 -62.5 166v457h91v-443q0 -84 37 -122.5t109 -38.5q71 0 107.5 39t36.5 122v443h86v-457q0 -109 -63.5 -166t-171.5 -57q-107 0 -169.5 57zM344.5 762.5q-17.5 9.5 -38.5 27.5q-14 12 -24 18t-20 6q-34 0 -38 -57h-61q3 69 32 97.5t67 28.5
q25 0 41.5 -8.5t38.5 -27.5q18 -16 26.5 -21t19.5 -5q32 0 38 57h60q-3 -70 -32 -97.5t-67 -27.5q-25 0 -42.5 9.5z" />
    <glyph glyph-name="utilde" unicode="&#x169;" horiz-adv-x="550" 
d="M467 494v-494h-85v72h-5q-20 -39 -57 -60.5t-88 -21.5q-70 0 -112.5 44.5t-42.5 120.5v339h88v-320q0 -54 21.5 -83.5t70.5 -29.5q51 0 86 38t35 101v294h89zM291 589q-17 11 -37 32q-11 13 -20 19.5t-19 6.5q-32 0 -36 -64h-59q3 73 30.5 102.5t64.5 29.5q26 0 42.5 -11
t34.5 -31q13 -14 22 -21t20 -7q14 0 23 13.5t13 50.5h59q-3 -73 -31 -102t-64 -29q-26 0 -43 11z" />
    <glyph glyph-name="Umacron" unicode="&#x16a;" horiz-adv-x="643" 
d="M150.5 45q-62.5 57 -62.5 166v457h91v-443q0 -84 37 -122.5t109 -38.5q71 0 107.5 39t36.5 122v443h86v-457q0 -109 -63.5 -166t-171.5 -57q-107 0 -169.5 57zM168 846h314v-68h-314v68z" />
    <glyph glyph-name="umacron" unicode="&#x16b;" horiz-adv-x="550" 
d="M467 494v-494h-85v72h-5q-20 -39 -57 -60.5t-88 -21.5q-70 0 -112.5 44.5t-42.5 120.5v339h88v-320q0 -54 21.5 -83.5t70.5 -29.5q51 0 86 38t35 101v294h89zM125 667h299v-66h-299v66z" />
    <glyph glyph-name="Ubreve" unicode="&#x16c;" horiz-adv-x="643" 
d="M150.5 45q-62.5 57 -62.5 166v457h91v-443q0 -84 37 -122.5t109 -38.5q71 0 107.5 39t36.5 122v443h86v-457q0 -109 -63.5 -166t-171.5 -57q-107 0 -169.5 57zM217 779.5q-41 36.5 -47 105.5h63q8 -43 31.5 -60.5t60.5 -17.5t60.5 17.5t31.5 60.5h63q-6 -69 -47 -105.5
t-108 -36.5t-108 36.5z" />
    <glyph glyph-name="ubreve" unicode="&#x16d;" horiz-adv-x="550" 
d="M467 494v-494h-85v72h-5q-20 -39 -57 -60.5t-88 -21.5q-70 0 -112.5 44.5t-42.5 120.5v339h88v-320q0 -54 21.5 -83.5t70.5 -29.5q51 0 86 38t35 101v294h89zM173.5 611.5q-39.5 37.5 -45.5 107.5h61q13 -84 86 -84q32 0 55 19.5t30 64.5h61q-6 -71 -45 -108t-101 -37
t-101.5 37.5z" />
    <glyph glyph-name="Uring" unicode="&#x16e;" horiz-adv-x="643" 
d="M150.5 45q-62.5 57 -62.5 166v457h91v-443q0 -84 37 -122.5t109 -38.5q71 0 107.5 39t36.5 122v443h86v-457q0 -109 -63.5 -166t-171.5 -57q-107 0 -169.5 57zM241.5 749q-32.5 29 -32.5 73q0 45 32 74t82 29q51 0 83.5 -29t32.5 -74q0 -44 -33 -73t-83 -29
q-49 0 -81.5 29zM364.5 783.5q16.5 15.5 16.5 38.5q0 24 -16 40t-42 16t-41 -16t-15 -40q0 -23 16 -38.5t40 -15.5q25 0 41.5 15.5z" />
    <glyph glyph-name="uring" unicode="&#x16f;" horiz-adv-x="550" 
d="M467 494v-494h-85v72h-5q-20 -39 -57 -60.5t-88 -21.5q-70 0 -112.5 44.5t-42.5 120.5v339h88v-320q0 -54 21.5 -83.5t70.5 -29.5q51 0 86 38t35 101v294h89zM191.5 591q-32.5 30 -32.5 74q0 45 32 75t82 30q51 0 83.5 -30t32.5 -75q0 -44 -33 -74t-83 -30
q-49 0 -81.5 30zM314.5 625q16.5 16 16.5 40t-16 40.5t-42 16.5q-25 0 -40.5 -16.5t-15.5 -40.5q0 -23 16 -39.5t40 -16.5q25 0 41.5 16z" />
    <glyph glyph-name="Uhungarumlaut" unicode="&#x170;" horiz-adv-x="643" 
d="M150.5 45q-62.5 57 -62.5 166v457h91v-443q0 -84 37 -122.5t109 -38.5q71 0 107.5 39t36.5 122v443h86v-457q0 -109 -63.5 -166t-171.5 -57q-107 0 -169.5 57zM269 886h93l-97 -134h-78zM452 886h97l-105 -134h-75z" />
    <glyph glyph-name="uhungarumlaut" unicode="&#x171;" horiz-adv-x="550" 
d="M467 494v-494h-85v72h-5q-20 -39 -57 -60.5t-88 -21.5q-70 0 -112.5 44.5t-42.5 120.5v339h88v-320q0 -54 21.5 -83.5t70.5 -29.5q51 0 86 38t35 101v294h89zM237 725h89l-105 -147h-76zM408 725h96l-116 -147h-73z" />
    <glyph glyph-name="Uogonek" unicode="&#x172;" horiz-adv-x="643" 
d="M378.5 -36q-17.5 -21 -17.5 -45q0 -18 11.5 -29t32.5 -11q31 0 57 30l42 -41q-40 -58 -116 -58q-52 0 -82 24.5t-30 66.5q0 46 49 83v4h-5q-107 0 -169.5 57t-62.5 166v457h91v-443q0 -84 37 -122.5t109 -38.5q71 0 107.5 39t36.5 122v443h86v-457q0 -78 -32.5 -129
t-91.5 -75q-35 -22 -52.5 -43z" />
    <glyph glyph-name="uogonek" unicode="&#x173;" horiz-adv-x="550" 
d="M490 -137q-37 -53 -97 -53q-43 0 -70 22.5t-27 57.5q0 32 22 60.5t64 57.5v64h-5q-20 -39 -57 -60.5t-88 -21.5q-70 0 -112.5 44.5t-42.5 120.5v339h88v-320q0 -54 21.5 -83.5t70.5 -29.5q51 0 86 38t35 101v294h89v-494h-24q-66 -48 -66 -92q0 -17 8.5 -25t22.5 -8
q13 0 23.5 7t21.5 20z" />
    <glyph glyph-name="Wcircumflex" unicode="&#x174;" horiz-adv-x="902" 
d="M643 99h4q3 18 7.5 37.5t6.5 29.5l112 502h94l-170 -668h-101l-128 488q-12 47 -15 75h-4q-4 -38 -14 -75l-130 -488h-100l-170 668h96l113 -500q12 -51 14 -70h4q3 21 16 72l132 498h83l135 -501q10 -37 15 -68zM535 750l-83 86l-83 -86h-80l119 136h87l119 -136h-79z
" />
    <glyph glyph-name="wcircumflex" unicode="&#x175;" horiz-adv-x="739" 
d="M33 494h93l80 -327q12 -59 14 -75h4q3 23 8.5 44.5t7.5 28.5l87 329h85l89 -328q11 -38 16 -74h4q8 45 15 74l78 328h92l-138 -494h-95l-84 317q-8 29 -17 88h-4q-6 -47 -17 -88l-88 -317h-95zM449 578l-79 94l-80 -94h-75l115 147h79l116 -147h-76z" />
    <glyph glyph-name="Ycircumflex" unicode="&#x176;" horiz-adv-x="597" 
d="M346 313v-313h-91v309l-234 359h106l148 -239q18 -29 25 -44h4q9 20 24 43l150 240h98zM385 750l-83 86l-83 -86h-80l119 136h87l119 -136h-79z" />
    <glyph glyph-name="ycircumflex" unicode="&#x177;" horiz-adv-x="496" 
d="M48 -182v71q35 -8 55 -8q28 0 46.5 20t34.5 67l22 61l-178 465h94l107 -309q11 -30 20 -70h4q7 34 19 70l108 309h89l-205 -553q-27 -73 -62 -101.5t-90 -28.5q-33 0 -64 7zM327 578l-79 94l-80 -94h-75l115 147h79l116 -147h-76z" />
    <glyph glyph-name="Ydieresis" unicode="&#x178;" horiz-adv-x="597" 
d="M346 313v-313h-91v309l-234 359h106l148 -239q18 -29 25 -44h4q9 20 24 43l150 240h98zM153.5 761q-16.5 16 -16.5 42t16.5 43t42.5 17q27 0 43 -16.5t16 -43.5q0 -26 -16 -42t-43 -16q-26 0 -42.5 16zM365.5 761q-16.5 16 -16.5 42t16.5 43t42.5 17t43 -17t17 -43
q0 -25 -17 -41.5t-43 -16.5t-42.5 16z" />
    <glyph glyph-name="Zacute" unicode="&#x179;" horiz-adv-x="532" 
d="M485 73v-73h-442v79l344 516h-330v73h427v-79l-344 -516h345zM305 894h100l-108 -142h-77z" />
    <glyph glyph-name="zacute" unicode="&#x17a;" horiz-adv-x="447" 
d="M401 66v-66h-358v69l261 359h-250v66h346v-69l-261 -359h262zM272 744h96l-119 -166h-73z" />
    <glyph glyph-name="Zdotaccent" unicode="&#x17b;" horiz-adv-x="532" 
d="M485 73v-73h-442v79l344 516h-330v73h427v-79l-344 -516h345zM224 759.5q-18 17.5 -18 43.5q0 27 18 44.5t45 17.5t44.5 -17.5t17.5 -44.5q0 -26 -17.5 -43.5t-44.5 -17.5t-45 17.5z" />
    <glyph glyph-name="zdotaccent" unicode="&#x17c;" horiz-adv-x="447" 
d="M401 66v-66h-358v69l261 359h-250v66h346v-69l-261 -359h262zM181 600q-17 17 -17 43q0 27 17 44t44 17t43.5 -17t16.5 -44q0 -26 -16.5 -43t-43.5 -17t-44 17z" />
    <glyph glyph-name="Zcaron" unicode="&#x17d;" horiz-adv-x="532" 
d="M485 73v-73h-442v79l344 516h-330v73h427v-79l-344 -516h345zM432 886l-119 -136h-87l-119 136h80l83 -87l83 87h79z" />
    <glyph glyph-name="zcaron" unicode="&#x17e;" horiz-adv-x="447" 
d="M401 66v-66h-358v69l261 359h-250v66h346v-69l-261 -359h262zM379 725l-116 -147h-79l-115 147h75l80 -94l79 94h76z" />
    <glyph glyph-name="uni018F" unicode="&#x18f;" horiz-adv-x="664" 
d="M471 639q65 -41 99.5 -118.5t34.5 -185.5t-34 -186.5t-97 -119.5t-148 -41t-146.5 39.5t-94 112.5t-32.5 173q0 12 2 40h458q-4 123 -57 187t-144 64q-97 0 -169 -90l-64 46q88 120 238 120q89 0 154 -41zM452 119q48 55 58 162h-368q5 -105 53 -161t131 -56q78 0 126 55
z" />
    <glyph glyph-name="florin" unicode="&#x192;" 
d="M328 544.5q-7 -27.5 -14 -89.5l-9 -87h130v-63h-136l-21 -217q-7 -75 -18.5 -114t-31.5 -61q-36 -40 -109 -40q-43 0 -75 9l11 67q28 -6 51 -6q36 0 55 25q11 14 18.5 44t13.5 96l19 197h-122v63h128l10 108q8 70 19 107t33 59q20 20 46.5 29t63.5 9q40 0 73 -10l-10 -68
q-22 7 -52 7q-18 0 -31 -5t-23 -17q-12 -15 -19 -42.5z" />
    <glyph glyph-name="uni01C4" unicode="&#x1c4;" horiz-adv-x="1184" 
d="M456 631.5q70 -36.5 110 -111.5t40 -186t-40 -186t-110 -111.5t-162 -36.5h-200v668h200q92 0 162 -36.5zM452 139.5q61 64.5 61 194.5t-61 194.5t-167 64.5h-100v-518h100q106 0 167 64.5zM1137 73v-73h-442v79l344 516h-330v73h427v-79l-344 -516h345zM1084 886
l-119 -136h-87l-119 136h80l83 -87l83 87h79z" />
    <glyph glyph-name="uni01C5" unicode="&#x1c5;" horiz-adv-x="1109" 
d="M456 631.5q70 -36.5 110 -111.5t40 -186t-40 -186t-110 -111.5t-162 -36.5h-200v668h200q92 0 162 -36.5zM452 139.5q61 64.5 61 194.5t-61 194.5t-167 64.5h-100v-518h100q106 0 167 64.5zM1063 66v-66h-358v69l261 359h-250v66h346v-69l-261 -359h262zM1041 725
l-116 -147h-79l-115 147h75l80 -94l79 94h76z" />
    <glyph glyph-name="uni01C6" unicode="&#x1c6;" horiz-adv-x="1017" 
d="M488 695v-695h-85v79h-4q-44 -89 -144 -89q-55 0 -101 29.5t-73.5 87.5t-27.5 139q0 82 27.5 140.5t73.5 88t101 29.5q98 0 140 -82h4v273h89zM366 110q35 49 35 137t-35 137t-94 49t-93.5 -49t-34.5 -138q0 -88 34.5 -136.5t93.5 -48.5t94 49zM971 66v-66h-358v69
l261 359h-250v66h346v-69l-261 -359h262zM949 725l-116 -147h-79l-115 147h75l80 -94l79 94h76z" />
    <glyph glyph-name="uni01C7" unicode="&#x1c7;" horiz-adv-x="863" 
d="M472 75v-75h-378v668h91v-593h287zM559 -114q-20 2 -41 9v76q30 -11 70 -11q46 0 68 24.5t22 76.5v607h91v-621q0 -79 -44 -121t-118 -42q-28 0 -48 2z" />
    <glyph glyph-name="uni01C8" unicode="&#x1c8;" horiz-adv-x="769" 
d="M472 75v-75h-378v668h91v-593h287zM476 -181v71q35 -9 57 -9q35 0 50 19.5t15 63.5v530h88v-544q0 -139 -135 -139q-41 0 -75 8zM599 599q-17 17 -17 43q0 27 17 44t44 17t43.5 -17t16.5 -44q0 -26 -16.5 -43t-43.5 -17t-44 17z" />
    <glyph glyph-name="uni01C9" unicode="&#x1c9;" horiz-adv-x="532" 
d="M240 -2q-26 -8 -65 -8q-43 0 -69 23.5t-26 73.5v608h89v-587q0 -48 34 -48q19 0 37 6v-68zM239 -181v71q35 -9 57 -9q35 0 50 19.5t15 63.5v530h88v-544q0 -139 -135 -139q-41 0 -75 8zM362 599q-17 17 -17 43q0 27 17 44t44 17t43.5 -17t16.5 -44q0 -26 -16.5 -43
t-43.5 -17t-44 17z" />
    <glyph glyph-name="uni01CA" unicode="&#x1ca;" horiz-adv-x="1021" 
d="M94 668h110l249 -478q2 -5 15 -29.5t21 -47.5h4q-3 44 -3 87v468h87v-668h-112l-248 478q-25 49 -35 77h-4q3 -42 3 -87v-468h-87v668zM717 -114q-20 2 -41 9v76q30 -11 70 -11q46 0 68 24.5t22 76.5v607h91v-621q0 -79 -44 -121t-118 -42q-28 0 -48 2z" />
    <glyph glyph-name="uni01CB" unicode="&#x1cb;" horiz-adv-x="929" 
d="M94 668h110l249 -478q2 -5 15 -29.5t21 -47.5h4q-3 44 -3 87v468h87v-668h-112l-248 478q-25 49 -35 77h-4q3 -42 3 -87v-468h-87v668zM636 -181v71q35 -9 57 -9q35 0 50 19.5t15 63.5v530h88v-544q0 -139 -135 -139q-41 0 -75 8zM759 599q-17 17 -17 43q0 27 17 44
t44 17t43.5 -17t16.5 -44q0 -26 -16.5 -43t-43.5 -17t-44 17z" />
    <glyph glyph-name="uni01CC" unicode="&#x1cc;" horiz-adv-x="810" 
d="M429.5 459.5q42.5 -44.5 42.5 -120.5v-339h-88v320q0 54 -21.5 83.5t-70.5 29.5q-51 0 -86 -38t-35 -101v-294h-89v494h85v-72h5q20 39 57 60.5t88 21.5q70 0 112.5 -44.5zM517 -181v71q35 -9 57 -9q35 0 50 19.5t15 63.5v530h88v-544q0 -139 -135 -139q-41 0 -75 8z
M640 599q-17 17 -17 43q0 27 17 44t44 17t43.5 -17t16.5 -44q0 -26 -16.5 -43t-43.5 -17t-44 17z" />
    <glyph glyph-name="uni01CD" unicode="&#x1cd;" horiz-adv-x="607" 
d="M431 170h-262l-54 -170h-88l225 668h103l225 -668h-95zM409 242l-87 275q-10 32 -18 71h-4q-7 -32 -20 -70l-88 -276h217zM467 886l-119 -136h-87l-119 136h80l83 -87l83 87h79z" />
    <glyph glyph-name="uni01CE" unicode="&#x1ce;" horiz-adv-x="509" 
d="M440 0h-86l-4 54l-2 20h-4q-48 -84 -154 -84q-63 0 -102.5 35.5t-39.5 99.5q0 67 41.5 105.5t106.5 53.5q72 18 146 27v26q0 51 -23.5 74.5t-70.5 23.5q-39 0 -64 -18.5t-27 -46.5h-89q2 36 24.5 67t63 49t93.5 18q85 0 133.5 -45t48.5 -131v-201q0 -50 9 -127zM305 99.5
q37 39.5 37 103.5v50q-44 -6 -111 -24q-49 -12 -70.5 -35.5t-21.5 -59.5q0 -35 20.5 -54.5t54.5 -19.5q54 0 91 39.5zM402 725l-116 -147h-79l-115 147h75l80 -94l79 94h76z" />
    <glyph glyph-name="uni01CF" unicode="&#x1cf;" horiz-adv-x="352" 
d="M133 752l-89 134h73l60 -80l59 80h74l-90 -134h-87zM297 596h-76v-524h76v-72h-242v72h75v524h-75v72h242v-72z" />
    <glyph glyph-name="uni01D0" unicode="&#x1d0;" horiz-adv-x="253" 
d="M87 577l-94 148h71l63 -92l62 92h71l-94 -148h-79zM82 494h89v-494h-89v494z" />
    <glyph glyph-name="uni01D1" unicode="&#x1d1;" horiz-adv-x="690" 
d="M198 28q-65 40 -102.5 118t-37.5 188t37.5 188t102.5 118t147 40t147 -40t102.5 -118t37.5 -188t-37.5 -188t-102.5 -118t-147 -40t-147 40zM484.5 132q53.5 68 53.5 202t-53.5 202t-139.5 68t-139.5 -68t-53.5 -202t53.5 -202t139.5 -68t139.5 68zM508 886l-119 -136
h-87l-119 136h80l83 -87l83 87h79z" />
    <glyph glyph-name="uni01D2" unicode="&#x1d2;" horiz-adv-x="554" 
d="M159 21q-51 31 -79 89.5t-28 136.5t28 136.5t79 89.5t118 31t118 -31t79 -89.5t28 -136.5t-28 -136.5t-79 -89.5t-118 -31t-118 31zM375 109.5q36 48.5 36 137.5t-36 137.5t-98 48.5t-98 -48.5t-36 -137.5t36 -137.5t98 -48.5t98 48.5zM432 725l-116 -147h-79l-115 147
h75l80 -94l79 94h76z" />
    <glyph glyph-name="uni01D3" unicode="&#x1d3;" horiz-adv-x="643" 
d="M150.5 45q-62.5 57 -62.5 166v457h91v-443q0 -84 37 -122.5t109 -38.5q71 0 107.5 39t36.5 122v443h86v-457q0 -109 -63.5 -166t-171.5 -57q-107 0 -169.5 57zM488 886l-119 -136h-87l-119 136h80l83 -87l83 87h79z" />
    <glyph glyph-name="uni01D4" unicode="&#x1d4;" horiz-adv-x="550" 
d="M467 494v-494h-85v72h-5q-20 -39 -57 -60.5t-88 -21.5q-70 0 -112.5 44.5t-42.5 120.5v339h88v-320q0 -54 21.5 -83.5t70.5 -29.5q51 0 86 38t35 101v294h89zM430 725l-116 -147h-79l-115 147h75l80 -94l79 94h76z" />
    <glyph glyph-name="uni01D5" unicode="&#x1d5;" horiz-adv-x="643" 
d="M150.5 45q-62.5 57 -62.5 166v457h91v-443q0 -84 37 -122.5t109 -38.5q71 0 107.5 39t36.5 122v443h86v-457q0 -109 -63.5 -166t-171.5 -57q-107 0 -169.5 57zM168 901v63h314v-63h-314zM178 753.5q-16 15.5 -16 40.5q0 24 16 40t41 16t41 -16t16 -40q0 -25 -16 -40.5
t-41 -15.5t-41 15.5zM390 753.5q-16 15.5 -16 40.5q0 24 16 40t41 16t41 -16t16 -40q0 -25 -16 -40.5t-41 -15.5t-41 15.5z" />
    <glyph glyph-name="uni01D6" unicode="&#x1d6;" horiz-adv-x="550" 
d="M467 494v-494h-85v72h-5q-20 -39 -57 -60.5t-88 -21.5q-70 0 -112.5 44.5t-42.5 120.5v339h88v-320q0 -54 21.5 -83.5t70.5 -29.5q51 0 86 38t35 101v294h89zM125 804h299v-66h-299v66zM139.5 576q-15.5 15 -15.5 38q0 24 15.5 39t39.5 15q25 0 40 -15t15 -39
q0 -23 -15 -38t-40 -15q-24 0 -39.5 15zM330.5 576q-15.5 15 -15.5 38q0 24 15.5 39t39.5 15t39.5 -15t15.5 -39q0 -23 -15.5 -38t-39.5 -15t-39.5 15z" />
    <glyph glyph-name="uni01D7" unicode="&#x1d7;" horiz-adv-x="643" 
d="M150.5 45q-62.5 57 -62.5 166v457h91v-443q0 -84 37 -122.5t109 -38.5q71 0 107.5 39t36.5 122v443h86v-457q0 -109 -63.5 -166t-171.5 -57q-107 0 -169.5 57zM358 998h100l-99 -122h-76zM178 753.5q-16 15.5 -16 40.5q0 24 16 40t41 16t41 -16t16 -40q0 -25 -16 -40.5
t-41 -15.5t-41 15.5zM390 753.5q-16 15.5 -16 40.5q0 24 16 40t41 16t41 -16t16 -40q0 -25 -16 -40.5t-41 -15.5t-41 15.5z" />
    <glyph glyph-name="uni01D8" unicode="&#x1d8;" horiz-adv-x="550" 
d="M467 494v-494h-85v72h-5q-20 -39 -57 -60.5t-88 -21.5q-70 0 -112.5 44.5t-42.5 120.5v339h88v-320q0 -54 21.5 -83.5t70.5 -29.5q51 0 86 38t35 101v294h89zM325 882h96l-119 -166h-73zM139.5 576q-15.5 15 -15.5 38q0 24 15.5 39t39.5 15t39.5 -15t15.5 -39
q0 -23 -15.5 -38t-39.5 -15t-39.5 15zM330 576q-15 15 -15 38q0 24 15 39t39 15t40 -15t16 -39q0 -23 -16 -38t-40 -15t-39 15z" />
    <glyph glyph-name="uni01D9" unicode="&#x1d9;" horiz-adv-x="643" 
d="M150.5 45q-62.5 57 -62.5 166v457h91v-443q0 -84 37 -122.5t109 -38.5q71 0 107.5 39t36.5 122v443h86v-457q0 -109 -63.5 -166t-171.5 -57q-107 0 -169.5 57zM486 998l-117 -122h-89l-117 122h80l81 -75l81 75h81zM260 834q16 -16 16 -40q0 -25 -16 -40.5t-41 -15.5
t-41 15.5t-16 40.5q0 24 16 40t41 16t41 -16zM472 834q16 -16 16 -40q0 -25 -16 -40.5t-41 -15.5t-41 15.5t-16 40.5q0 24 16 40t41 16t41 -16z" />
    <glyph glyph-name="uni01DA" unicode="&#x1da;" horiz-adv-x="550" 
d="M467 494v-494h-85v72h-5q-20 -39 -57 -60.5t-88 -21.5q-70 0 -112.5 44.5t-42.5 120.5v339h88v-320q0 -54 21.5 -83.5t70.5 -29.5q51 0 86 38t35 101v294h89zM314 716h-80l-115 147h75l80 -93l79 93h76zM218.5 653q15.5 -15 15.5 -39q0 -23 -15.5 -38t-39.5 -15t-39.5 15
t-15.5 38q0 24 15.5 39t39.5 15t39.5 -15zM408.5 653q15.5 -15 15.5 -39q0 -23 -15.5 -38t-39.5 -15t-39.5 15t-15.5 38q0 24 15.5 39t39.5 15t39.5 -15z" />
    <glyph glyph-name="uni01DB" unicode="&#x1db;" horiz-adv-x="643" 
d="M150.5 45q-62.5 57 -62.5 166v457h91v-443q0 -84 37 -122.5t109 -38.5q71 0 107.5 39t36.5 122v443h86v-457q0 -109 -63.5 -166t-171.5 -57q-107 0 -169.5 57zM192 998h99l76 -122h-77zM178 753.5q-16 15.5 -16 40.5q0 24 16 40t41 16t41 -16t16 -40q0 -25 -16 -40.5
t-41 -15.5t-41 15.5zM390 753.5q-16 15.5 -16 40.5q0 24 16 40t41 16t41 -16t16 -40q0 -25 -16 -40.5t-41 -15.5t-41 15.5z" />
    <glyph glyph-name="uni01DC" unicode="&#x1dc;" horiz-adv-x="550" 
d="M467 494v-494h-85v72h-5q-20 -39 -57 -60.5t-88 -21.5q-70 0 -112.5 44.5t-42.5 120.5v339h88v-320q0 -54 21.5 -83.5t70.5 -29.5q51 0 86 38t35 101v294h89zM250 716l-119 166h96l96 -166h-73zM139.5 576q-15.5 15 -15.5 38q0 24 15.5 39t39.5 15t39.5 -15t15.5 -39
q0 -23 -15.5 -38t-39.5 -15t-39.5 15zM330 576q-15 15 -15 38q0 24 15 39t39 15t40 -15t16 -39q0 -23 -16 -38t-40 -15t-39 15z" />
    <glyph glyph-name="uni01F1" unicode="&#x1f1;" horiz-adv-x="1184" 
d="M456 631.5q70 -36.5 110 -111.5t40 -186t-40 -186t-110 -111.5t-162 -36.5h-200v668h200q92 0 162 -36.5zM452 139.5q61 64.5 61 194.5t-61 194.5t-167 64.5h-100v-518h100q106 0 167 64.5zM1137 73v-73h-442v79l344 516h-330v73h427v-79l-344 -516h345z" />
    <glyph glyph-name="uni01F2" unicode="&#x1f2;" horiz-adv-x="1109" 
d="M456 631.5q70 -36.5 110 -111.5t40 -186t-40 -186t-110 -111.5t-162 -36.5h-200v668h200q92 0 162 -36.5zM452 139.5q61 64.5 61 194.5t-61 194.5t-167 64.5h-100v-518h100q106 0 167 64.5zM1063 66v-66h-358v69l261 359h-250v66h346v-69l-261 -359h262z" />
    <glyph glyph-name="uni01F3" unicode="&#x1f3;" horiz-adv-x="1017" 
d="M488 695v-695h-85v79h-4q-44 -89 -144 -89q-55 0 -101 29.5t-73.5 87.5t-27.5 139q0 82 27.5 140.5t73.5 88t101 29.5q98 0 140 -82h4v273h89zM366 110q35 49 35 137t-35 137t-94 49t-93.5 -49t-34.5 -138q0 -88 34.5 -136.5t93.5 -48.5t94 49zM971 66v-66h-358v69
l261 359h-250v66h346v-69l-261 -359h262z" />
    <glyph glyph-name="uni0218" unicode="&#x218;" horiz-adv-x="562" 
d="M174 84q50 -21 101 -21q68 0 107.5 27t39.5 77q0 33 -16.5 55t-41 35.5t-67.5 32.5l-81 35q-149 62 -149 179q0 49 26 89t74 63.5t110 23.5q65 0 121 -22.5t98 -62.5l-47 -58q-33 32 -76 50t-92 18q-58 0 -90 -27t-32 -68q0 -42 26.5 -68t78.5 -47l85 -36q76 -32 120 -72
t44 -112q0 -87 -66 -137t-169 -50q-71 0 -131.5 25t-105.5 73l47 58q36 -39 86 -60zM322.5 -64.5q15.5 -17.5 15.5 -48.5q0 -34 -19 -71t-48 -66l-34 24q18 20 31.5 41.5t17.5 37.5q-3 -1 -8 -1q-24 0 -38.5 13.5t-14.5 36.5q0 22 14.5 36.5t39.5 14.5q28 0 43.5 -17.5z" />
    <glyph glyph-name="uni0219" unicode="&#x219;" horiz-adv-x="462" 
d="M152.5 77q34.5 -17 75.5 -17q103 0 103 68q0 32 -22.5 49t-74.5 34l-59 21q-118 43 -118 138q0 58 45.5 96t121.5 38q110 0 178 -70l-47 -53q-56 53 -127 53q-42 0 -64.5 -17t-22.5 -43q0 -27 19.5 -43.5t58.5 -30.5l60 -22q41 -15 69 -31.5t47.5 -44.5t19.5 -70
q0 -64 -50.5 -103t-133.5 -39q-118 0 -192 85l47 52q32 -33 66.5 -50zM272 -64.5q15 -17.5 15 -48.5q0 -33 -18.5 -68.5t-46.5 -64.5l-32 23q18 20 31 41.5t16 36.5q-2 -1 -8 -1q-23 0 -37 13t-14 35t14.5 36.5t37.5 14.5q27 0 42 -17.5z" />
    <glyph glyph-name="uni021A" unicode="&#x21a;" horiz-adv-x="543" 
d="M508 593h-191v-593h-91v593h-191v75h473v-75zM312.5 -64.5q15.5 -17.5 15.5 -48.5q0 -34 -19 -71t-48 -66l-34 24q18 20 31.5 41.5t17.5 37.5q-3 -1 -8 -1q-24 0 -38.5 13.5t-14.5 36.5q0 22 14.5 36.5t39.5 14.5q28 0 43.5 -17.5z" />
    <glyph glyph-name="uni021B" unicode="&#x21b;" horiz-adv-x="361" 
d="M291 63.5q16 3.5 36 11.5v-68q-39 -17 -97 -17q-51 0 -82 29.5t-31 90.5v316h-91v68h91v102l88 34v-136h117v-68h-117v-294q0 -39 11.5 -55.5t38.5 -16.5q20 0 36 3.5zM257 -64.5q15 -17.5 15 -48.5q0 -33 -18.5 -68.5t-46.5 -64.5l-32 23q18 20 31 41.5t16 36.5
q-2 -1 -8 -1q-23 0 -37 13t-14 35t14.5 36.5t37.5 14.5q27 0 42 -17.5z" />
    <glyph glyph-name="uni0232" unicode="&#x232;" horiz-adv-x="597" 
d="M346 313v-313h-91v309l-234 359h106l148 -239q18 -29 25 -44h4q9 20 24 43l150 240h98zM145 846h314v-68h-314v68z" />
    <glyph glyph-name="uni0233" unicode="&#x233;" horiz-adv-x="496" 
d="M48 -182v71q35 -8 55 -8q28 0 46.5 20t34.5 67l22 61l-178 465h94l107 -309q11 -30 20 -70h4q7 34 19 70l108 309h89l-205 -553q-27 -73 -62 -101.5t-90 -28.5q-33 0 -64 7zM99 667h299v-66h-299v66z" />
    <glyph glyph-name="uni0237" unicode="&#x237;" horiz-adv-x="261" 
d="M-32 -181v71q35 -9 57 -9q35 0 50 19.5t15 63.5v530h88v-544q0 -139 -135 -139q-41 0 -75 8z" />
    <glyph glyph-name="uni0259" unicode="&#x259;" horiz-adv-x="527" 
d="M365.5 473.5q51.5 -30.5 80.5 -88.5t29 -137t-28 -137.5t-77.5 -89.5t-113.5 -31q-62 0 -108.5 29.5t-72 84t-25.5 127.5q0 28 1 40h334q-5 79 -42.5 121t-102.5 42q-75 0 -128 -62l-47 51q70 81 181 81q68 0 119.5 -30.5zM343 97q34 37 41 109h-247q4 -72 35 -109
t84 -37t87 37z" />
    <glyph glyph-name="uni02BB" unicode="&#x2bb;" horiz-adv-x="235" 
d="M159 534q17 -18 17 -44q0 -27 -17 -44.5t-44 -17.5q-32 0 -50 22.5t-18 62.5q0 50 24.5 96t61.5 83l35 -30q-22 -22 -40.5 -51.5t-21.5 -59.5q4 1 11 1q25 0 42 -18z" />
    <glyph glyph-name="uni02BC" unicode="&#x2bc;" horiz-adv-x="239" 
d="M169.5 657q17.5 -23 17.5 -63q0 -50 -24.5 -95.5t-60.5 -82.5l-35 29q22 22 40.5 51.5t21.5 60.5q-4 -1 -11 -1q-26 0 -42.5 17.5t-16.5 44.5t17 44.5t43 17.5q33 0 50.5 -23z" />
    <glyph glyph-name="circumflex" unicode="&#x2c6;" horiz-adv-x="399" 
d="M279 578l-79 94l-80 -94h-75l115 147h79l116 -147h-76z" />
    <glyph glyph-name="caron" unicode="&#x2c7;" horiz-adv-x="399" 
d="M355 725l-116 -147h-79l-115 147h75l80 -94l79 94h76z" />
    <glyph glyph-name="breve" unicode="&#x2d8;" horiz-adv-x="399" 
d="M98.5 611.5q-39.5 37.5 -45.5 107.5h61q13 -84 86 -84q32 0 55 19.5t30 64.5h61q-6 -71 -45 -108t-101 -37t-101.5 37.5z" />
    <glyph glyph-name="dotaccent" unicode="&#x2d9;" horiz-adv-x="376" 
d="M145 600q-17 17 -17 43q0 27 17 44t44 17t43.5 -17t16.5 -44q0 -26 -16.5 -43t-43.5 -17t-44 17z" />
    <glyph glyph-name="ring" unicode="&#x2da;" horiz-adv-x="399" 
d="M116.5 591q-32.5 30 -32.5 74q0 45 32 75t82 30q51 0 83.5 -30t32.5 -75q0 -44 -33 -74t-83 -30q-49 0 -81.5 30zM239.5 625q16.5 16 16.5 40t-16 40.5t-42 16.5q-25 0 -40.5 -16.5t-15.5 -40.5q0 -23 16 -39.5t40 -16.5q25 0 41.5 16z" />
    <glyph glyph-name="ogonek" unicode="&#x2db;" horiz-adv-x="399" 
d="M118 -166q-29 24 -29 65q0 35 24.5 62.5t71.5 51.5l74 9q-45 -29 -67 -53.5t-22 -52.5q0 -18 11.5 -29.5t31.5 -11.5q16 0 29.5 8t27.5 23l40 -39q-41 -57 -113 -57q-50 0 -79 24z" />
    <glyph glyph-name="tilde" unicode="&#x2dc;" horiz-adv-x="399" 
d="M216 589q-17 11 -37 32q-11 13 -20 19.5t-19 6.5q-32 0 -36 -64h-59q3 73 30.5 102.5t64.5 29.5q26 0 42.5 -11t34.5 -31q13 -14 22 -21t20 -7q14 0 23 13.5t13 50.5h59q-3 -73 -31 -102t-64 -29q-26 0 -43 11z" />
    <glyph glyph-name="hungarumlaut" unicode="&#x2dd;" horiz-adv-x="399" 
d="M119 725h89l-105 -147h-76zM290 725h96l-116 -147h-73z" />
    <glyph glyph-name="gravecomb" unicode="&#x300;" horiz-adv-x="0" 
d="M-481 578l-119 166h96l96 -166h-73z" />
    <glyph glyph-name="acutecomb" unicode="&#x301;" horiz-adv-x="0" 
d="M-504 744h96l-119 -166h-73z" />
    <glyph glyph-name="uni0302" unicode="&#x302;" horiz-adv-x="0" 
d="M-366 578l-79 94l-80 -94h-75l115 147h79l116 -147h-76z" />
    <glyph glyph-name="tildecomb" unicode="&#x303;" horiz-adv-x="0" 
d="M-429 589q-17 11 -37 32q-11 13 -20 19.5t-19 6.5q-32 0 -36 -64h-59q3 73 30.5 102.5t64.5 29.5q26 0 42.5 -11t34.5 -31q13 -14 22 -21t20 -7q14 0 23 13.5t13 50.5h59q-3 -73 -31 -102t-64 -29q-26 0 -43 11z" />
    <glyph glyph-name="uni0304" unicode="&#x304;" horiz-adv-x="0" 
d="M-600 667h299v-66h-299v66z" />
    <glyph glyph-name="uni0306" unicode="&#x306;" horiz-adv-x="0" 
d="M-554.5 611.5q-39.5 37.5 -45.5 107.5h61q13 -84 86 -84q32 0 55 19.5t30 64.5h61q-6 -71 -45 -108t-101 -37t-101.5 37.5z" />
    <glyph glyph-name="uni0307" unicode="&#x307;" horiz-adv-x="0" 
d="M-452 600q-17 17 -17 43q0 27 17 44t44 17t43.5 -17t16.5 -44q0 -26 -16.5 -43t-43.5 -17t-44 17z" />
    <glyph glyph-name="uni0308" unicode="&#x308;" horiz-adv-x="0" 
d="M-597.5 602q-16.5 16 -16.5 41q0 26 16 42.5t42 16.5t42 -16.5t16 -42.5q0 -25 -16 -41t-42 -16q-25 0 -41.5 16zM-401.5 602q-16.5 16 -16.5 41q0 26 16 42.5t42 16.5t42 -16.5t16 -42.5q0 -25 -16 -41t-42 -16q-25 0 -41.5 16z" />
    <glyph glyph-name="uni030A" unicode="&#x30a;" horiz-adv-x="0" 
d="M-567.5 591q-32.5 30 -32.5 74q0 45 32 75t82 30q51 0 83.5 -30t32.5 -75q0 -44 -33 -74t-83 -30q-49 0 -81.5 30zM-444.5 625q16.5 16 16.5 40t-16 40.5t-42 16.5q-25 0 -40.5 -16.5t-15.5 -40.5q0 -23 16 -39.5t40 -16.5q25 0 41.5 16z" />
    <glyph glyph-name="uni030B" unicode="&#x30b;" horiz-adv-x="0" 
d="M-508 725h89l-105 -147h-76zM-337 725h96l-116 -147h-73z" />
    <glyph glyph-name="uni030C" unicode="&#x30c;" horiz-adv-x="0" 
d="M-290 725l-116 -147h-79l-115 147h75l80 -94l79 94h76z" />
    <glyph glyph-name="uni0312" unicode="&#x312;" horiz-adv-x="0" 
d="M-507 661q14 -13 14 -35q0 -21 -14.5 -36t-37.5 -15q-27 0 -42 17.5t-15 48.5q0 33 18.5 68.5t46.5 64.5l32 -23q-18 -20 -31 -41.5t-16 -36.5q2 1 8 1q23 0 37 -13z" />
    <glyph glyph-name="uni0326" unicode="&#x326;" horiz-adv-x="0" 
d="M-506 -64.5q15 -17.5 15 -48.5q0 -33 -18.5 -68.5t-46.5 -64.5l-32 23q18 20 31 41.5t16 36.5q-2 -1 -8 -1q-23 0 -37 13t-14 35t14.5 36.5t37.5 14.5q27 0 42 -17.5z" />
    <glyph glyph-name="uni0327" unicode="&#x327;" horiz-adv-x="0" 
d="M-600 -136l36 34q14 -15 27.5 -23t30.5 -8q21 0 33.5 12t12.5 31q0 30 -22.5 55.5t-70.5 56.5l64 -9l15 -8q4 -3 27 -18t39.5 -38.5t16.5 -50.5q0 -40 -28 -63.5t-75 -23.5q-68 0 -106 53z" />
    <glyph glyph-name="uni0328" unicode="&#x328;" horiz-adv-x="0" 
d="M-571 -166q-29 24 -29 65q0 35 24.5 62.5t71.5 51.5l74 9q-45 -29 -67 -53.5t-22 -52.5q0 -18 11.5 -29.5t31.5 -11.5q16 0 29.5 8t27.5 23l40 -39q-41 -57 -113 -57q-50 0 -79 24z" />
    <glyph glyph-name="uni0394" unicode="&#x394;" horiz-adv-x="622" 
d="M587 63v-63h-552v63l225 605h103zM124 71h368l-156 441l-16 46l-9 27h-4l-24 -71z" />
    <glyph glyph-name="uni03A9" unicode="&#x3a9;" horiz-adv-x="701" 
d="M61 69h145v4q-62 45 -100.5 120.5t-38.5 173.5q0 99 37.5 169.5t102 107t144.5 36.5t144.5 -36.5t101.5 -107t37 -169.5q0 -98 -38.5 -173.5t-100.5 -120.5v-4h146v-69h-230v73q58 46 94.5 117.5t36.5 163.5q0 124 -53.5 187t-137.5 63t-137.5 -63t-53.5 -187
q0 -92 36.5 -163.5t94.5 -117.5v-73h-230v69z" />
    <glyph glyph-name="uni03BC" unicode="&#x3bc;" horiz-adv-x="569" 
d="M524 68v-68q-21 -7 -46 -7q-39 0 -59.5 18.5t-24.5 57.5h-5q-17 -38 -48 -58t-71 -20q-60 0 -92 41h-7v-211h-89v673h89v-327q0 -53 28 -79.5t71 -26.5q48 0 81 39.5t33 100.5v293h88v-362q0 -40 8.5 -53t26.5 -13q9 0 17 2z" />
    <glyph glyph-name="pi" unicode="&#x3c0;" horiz-adv-x="557" 
d="M428 428v-304q0 -35 8 -46.5t31 -11.5q17 0 39 5v-65q-30 -10 -63 -10q-54 0 -76 24t-22 86v322h-140l-37 -428h-84l39 428h-82v66h470v-66h-83z" />
    <glyph glyph-name="uni0E3F" unicode="&#xe3f;" 
d="M436 51q-54 -47 -140 -51v-88h-66v88h-160v668h160v81h66v-82q81 -5 126 -49t45 -121q0 -107 -97 -142v-5q57 -17 88.5 -58t31.5 -105q0 -89 -54 -136zM156 597v-220h74v220h-74zM360.5 564.5q-20.5 26.5 -64.5 31.5v-216q41 7 63 33.5t22 73.5q0 51 -20.5 77.5zM230 71
v239h-74v-239h74zM401 191q0 106 -105 117v-236q105 11 105 119z" />
    <glyph glyph-name="Wgrave" unicode="&#x1e80;" horiz-adv-x="902" 
d="M643 99h4q3 18 7.5 37.5t6.5 29.5l112 502h94l-170 -668h-101l-128 488q-12 47 -15 75h-4q-4 -38 -14 -75l-130 -488h-100l-170 668h96l113 -500q12 -51 14 -70h4q3 21 16 72l132 498h83l135 -501q10 -37 15 -68zM424 752l-108 142h100l85 -142h-77z" />
    <glyph glyph-name="wgrave" unicode="&#x1e81;" horiz-adv-x="739" 
d="M33 494h93l80 -327q12 -59 14 -75h4q3 23 8.5 44.5t7.5 28.5l87 329h85l89 -328q11 -38 16 -74h4q8 45 15 74l78 328h92l-138 -494h-95l-84 317q-8 29 -17 88h-4q-6 -47 -17 -88l-88 -317h-95zM345 578l-119 166h96l96 -166h-73z" />
    <glyph glyph-name="Wacute" unicode="&#x1e82;" horiz-adv-x="902" 
d="M643 99h4q3 18 7.5 37.5t6.5 29.5l112 502h94l-170 -668h-101l-128 488q-12 47 -15 75h-4q-4 -38 -14 -75l-130 -488h-100l-170 668h96l113 -500q12 -51 14 -70h4q3 21 16 72l132 498h83l135 -501q10 -37 15 -68zM488 894h100l-108 -142h-77z" />
    <glyph glyph-name="wacute" unicode="&#x1e83;" horiz-adv-x="739" 
d="M33 494h93l80 -327q12 -59 14 -75h4q3 23 8.5 44.5t7.5 28.5l87 329h85l89 -328q11 -38 16 -74h4q8 45 15 74l78 328h92l-138 -494h-95l-84 317q-8 29 -17 88h-4q-6 -47 -17 -88l-88 -317h-95zM418 744h96l-119 -166h-73z" />
    <glyph glyph-name="Wdieresis" unicode="&#x1e84;" horiz-adv-x="902" 
d="M643 99h4q3 18 7.5 37.5t6.5 29.5l112 502h94l-170 -668h-101l-128 488q-12 47 -15 75h-4q-4 -38 -14 -75l-130 -488h-100l-170 668h96l113 -500q12 -51 14 -70h4q3 21 16 72l132 498h83l135 -501q10 -37 15 -68zM303.5 761q-16.5 16 -16.5 42t16.5 43t42.5 17
q27 0 43 -16.5t16 -43.5q0 -26 -16 -42t-43 -16q-26 0 -42.5 16zM515.5 761q-16.5 16 -16.5 42t16.5 43t42.5 17t43 -17t17 -43q0 -25 -17 -41.5t-43 -16.5t-42.5 16z" />
    <glyph glyph-name="wdieresis" unicode="&#x1e85;" horiz-adv-x="739" 
d="M33 494h93l80 -327q12 -59 14 -75h4q3 23 8.5 44.5t7.5 28.5l87 329h85l89 -328q11 -38 16 -74h4q8 45 15 74l78 328h92l-138 -494h-95l-84 317q-8 29 -17 88h-4q-6 -47 -17 -88l-88 -317h-95zM230.5 602q-16.5 16 -16.5 41q0 26 16 42.5t42 16.5t42 -16.5t16 -42.5
q0 -25 -16 -41t-42 -16q-25 0 -41.5 16zM426.5 602q-16.5 16 -16.5 41q0 26 16 42.5t42 16.5t42 -16.5t16 -42.5q0 -25 -16 -41t-42 -16q-25 0 -41.5 16z" />
    <glyph glyph-name="uni1E9E" unicode="&#x1e9e;" horiz-adv-x="624" 
d="M536 280q38 -45 38 -109q0 -53 -25 -95t-69.5 -65t-101.5 -23q-71 0 -127 38l29 67q44 -31 91 -31q51 0 80.5 30t29.5 75q0 42 -26.5 73t-79.5 60l-70 39v45l136 182q-59 39 -120 39q-78 0 -110 -50t-32 -139v-416h-91v428q0 120 56.5 186t175.5 66q131 0 232 -87
l-156 -210l40 -23q62 -35 100 -80z" />
    <glyph glyph-name="uni1EBC" unicode="&#x1ebc;" horiz-adv-x="550" 
d="M489 74v-74h-395v668h388v-74h-297v-214h278v-71h-278v-235h304zM308.5 762.5q-17.5 9.5 -38.5 27.5q-14 12 -24 18t-20 6q-34 0 -38 -57h-61q3 69 32 97.5t67 28.5q25 0 41.5 -8.5t38.5 -27.5q18 -16 26.5 -21t19.5 -5q32 0 38 57h60q-3 -70 -32 -97.5t-67 -27.5
q-25 0 -42.5 9.5z" />
    <glyph glyph-name="uni1EBD" unicode="&#x1ebd;" horiz-adv-x="527" 
d="M476 223h-334q5 -79 42.5 -121t102.5 -42q75 0 128 62l47 -51q-70 -81 -181 -81q-68 0 -119.5 30.5t-80.5 88.5t-29 137t28 137.5t77.5 89.5t113.5 31q62 0 108.5 -29.5t72 -84t25.5 -127.5q0 -28 -1 -40zM184 397q-34 -37 -41 -109h247q-4 72 -35 109t-84 37t-87 -37z
M280 589q-17 11 -37 32q-11 13 -20 19.5t-19 6.5q-32 0 -36 -64h-59q3 73 30.5 102.5t64.5 29.5q26 0 42.5 -11t34.5 -31q13 -14 22 -21t20 -7q14 0 23 13.5t13 50.5h59q-3 -73 -31 -102t-64 -29q-26 0 -43 11z" />
    <glyph glyph-name="Ygrave" unicode="&#x1ef2;" horiz-adv-x="597" 
d="M346 313v-313h-91v309l-234 359h106l148 -239q18 -29 25 -44h4q9 20 24 43l150 240h98zM274 752l-108 142h100l85 -142h-77z" />
    <glyph glyph-name="ygrave" unicode="&#x1ef3;" horiz-adv-x="496" 
d="M48 -182v71q35 -8 55 -8q28 0 46.5 20t34.5 67l22 61l-178 465h94l107 -309q11 -30 20 -70h4q7 34 19 70l108 309h89l-205 -553q-27 -73 -62 -101.5t-90 -28.5q-33 0 -64 7zM223 578l-119 166h96l96 -166h-73z" />
    <glyph glyph-name="uni1EF8" unicode="&#x1ef8;" horiz-adv-x="597" 
d="M346 313v-313h-91v309l-234 359h106l148 -239q18 -29 25 -44h4q9 20 24 43l150 240h98zM321.5 762.5q-17.5 9.5 -38.5 27.5q-14 12 -24 18t-20 6q-34 0 -38 -57h-61q3 69 32 97.5t67 28.5q25 0 41.5 -8.5t38.5 -27.5q18 -16 26.5 -21t19.5 -5q32 0 38 57h60
q-3 -70 -32 -97.5t-67 -27.5q-25 0 -42.5 9.5z" />
    <glyph glyph-name="uni1EF9" unicode="&#x1ef9;" horiz-adv-x="496" 
d="M48 -182v71q35 -8 55 -8q28 0 46.5 20t34.5 67l22 61l-178 465h94l107 -309q11 -30 20 -70h4q7 34 19 70l108 309h89l-205 -553q-27 -73 -62 -101.5t-90 -28.5q-33 0 -64 7zM264 589q-17 11 -37 32q-11 13 -20 19.5t-19 6.5q-32 0 -36 -64h-59q3 73 30.5 102.5t64.5 29.5
q26 0 42.5 -11t34.5 -31q13 -14 22 -21t20 -7q14 0 23 13.5t13 50.5h59q-3 -73 -31 -102t-64 -29q-26 0 -43 11z" />
    <glyph glyph-name="uni2007" unicode="&#x2007;" 
 />
    <glyph glyph-name="uni2008" unicode="&#x2008;" horiz-adv-x="247" 
 />
    <glyph glyph-name="uni2009" unicode="&#x2009;" horiz-adv-x="125" 
 />
    <glyph glyph-name="uni200B" unicode="&#x200b;" horiz-adv-x="0" 
 />
    <glyph glyph-name="uni2010" unicode="&#x2010;" horiz-adv-x="381" 
d="M72 316h236v-72h-236v72z" />
    <glyph glyph-name="uni2011" unicode="&#x2011;" horiz-adv-x="381" 
d="M72 316h236v-72h-236v72z" />
    <glyph glyph-name="figuredash" unicode="&#x2012;" 
d="M51 314h440v-68h-440v68z" />
    <glyph glyph-name="endash" unicode="&#x2013;" horiz-adv-x="507" 
d="M72 314h363v-68h-363v68z" />
    <glyph glyph-name="emdash" unicode="&#x2014;" horiz-adv-x="845" 
d="M72 314h701v-68h-701v68z" />
    <glyph glyph-name="quoteleft" unicode="&#x2018;" horiz-adv-x="235" 
d="M158 534q17 -18 17 -44q0 -27 -17 -44.5t-44 -17.5q-32 0 -50 22.5t-18 62.5q0 50 24.5 96t61.5 83l35 -30q-22 -22 -40.5 -51.5t-21.5 -59.5q4 1 11 1q25 0 42 -18z" />
    <glyph glyph-name="quoteright" unicode="&#x2019;" horiz-adv-x="239" 
d="M169.5 657q17.5 -23 17.5 -63q0 -50 -24.5 -95.5t-60.5 -82.5l-35 29q22 22 40.5 51.5t21.5 60.5q-4 -1 -11 -1q-26 0 -42.5 17.5t-16.5 44.5t17 44.5t43 17.5q33 0 50.5 -23z" />
    <glyph glyph-name="quotesinglbase" unicode="&#x201a;" horiz-adv-x="242" 
d="M173.5 83q17.5 -23 17.5 -63q0 -50 -24.5 -95.5t-60.5 -82.5l-35 29q22 22 40.5 51.5t21.5 60.5q-4 -1 -11 -1q-26 0 -42.5 17.5t-16.5 44.5t17 44.5t43 17.5q33 0 50.5 -23z" />
    <glyph glyph-name="quotedblleft" unicode="&#x201c;" horiz-adv-x="416" 
d="M158 534q17 -18 17 -44q0 -27 -17 -44.5t-44 -17.5q-32 0 -50 22.5t-18 62.5q0 50 24.5 96t61.5 83l35 -30q-22 -22 -40.5 -51.5t-21.5 -59.5q4 1 11 1q25 0 42 -18zM338.5 534q16.5 -18 16.5 -44q0 -27 -17 -44.5t-43 -17.5q-33 0 -50.5 22.5t-17.5 62.5q0 50 24.5 96
t60.5 83l35 -30q-21 -21 -39.5 -50.5t-21.5 -60.5q4 1 11 1q25 0 41.5 -18z" />
    <glyph glyph-name="quotedblright" unicode="&#x201d;" horiz-adv-x="413" 
d="M169.5 657q17.5 -23 17.5 -63q0 -50 -24.5 -95.5t-60.5 -82.5l-35 29q22 22 40.5 51.5t21.5 60.5q-4 -1 -11 -1q-26 0 -42.5 17.5t-16.5 44.5t17 44.5t43 17.5q33 0 50.5 -23zM350.5 657q17.5 -23 17.5 -63q0 -50 -24.5 -95.5t-60.5 -82.5l-35 29q22 22 40.5 51.5
t21.5 60.5q-4 -1 -11 -1q-26 0 -42.5 17.5t-16.5 44.5t17 44.5t43 17.5q33 0 50.5 -23z" />
    <glyph glyph-name="quotedblbase" unicode="&#x201e;" horiz-adv-x="423" 
d="M173.5 83q17.5 -23 17.5 -63q0 -50 -24.5 -95.5t-60.5 -82.5l-35 29q22 22 40.5 51.5t21.5 60.5q-4 -1 -11 -1q-26 0 -42.5 17.5t-16.5 44.5t17 44.5t43 17.5q33 0 50.5 -23zM354.5 83q17.5 -23 17.5 -63q0 -50 -24.5 -95.5t-60.5 -82.5l-35 29q22 22 40.5 51.5
t21.5 60.5q-4 -1 -11 -1q-26 0 -42.5 17.5t-16.5 44.5t17 44.5t43 17.5q33 0 50.5 -23z" />
    <glyph glyph-name="dagger" unicode="&#x2020;" horiz-adv-x="433" 
d="M404 390h-149v-490h-77v490h-149v67h149v211h77v-211h149v-67z" />
    <glyph glyph-name="daggerdbl" unicode="&#x2021;" horiz-adv-x="478" 
d="M278 390v-199h149v-67h-149v-224h-78v224h-149v67h149v199h-149v67h149v211h78v-211h149v-67h-149z" />
    <glyph glyph-name="bullet" unicode="&#x2022;" horiz-adv-x="458" 
d="M339 389.5q42 -43.5 42 -110.5t-43 -110.5t-108 -43.5q-66 0 -109 43.5t-43 110.5t43.5 110.5t110.5 43.5q65 0 107 -43.5z" />
    <glyph glyph-name="ellipsis" unicode="&#x2026;" horiz-adv-x="711" 
d="M77.5 9q-18.5 19 -18.5 48t18 47.5t47 18.5t47.5 -18.5t18.5 -47.5t-18.5 -48t-47.5 -19q-28 0 -46.5 19zM308.5 9q-18.5 19 -18.5 48t18 47.5t47 18.5t47.5 -18.5t18.5 -47.5t-18.5 -48t-47.5 -19q-28 0 -46.5 19zM540.5 9q-18.5 19 -18.5 48t18 47.5t47 18.5
t47.5 -18.5t18.5 -47.5t-18.5 -48t-47.5 -19q-28 0 -46.5 19z" />
    <glyph glyph-name="perthousand" unicode="&#x2030;" horiz-adv-x="1167" 
d="M566 668h83l-411 -668h-81zM82.5 362q-43.5 50 -43.5 134t43.5 134t115.5 50t115.5 -50t43.5 -134t-43.5 -134t-115.5 -50t-115.5 50zM258.5 403.5q22.5 32.5 22.5 92.5t-22.5 93t-60.5 33q-39 0 -61 -32.5t-22 -93.5t22 -93t61 -32q38 0 60.5 32.5zM487 37
q-43 50 -43 134q0 85 43 134.5t115 49.5t115.5 -49.5t43.5 -134.5q0 -84 -43.5 -134t-115.5 -50t-115 50zM663 78q22 32 22 93t-22 93.5t-61 32.5q-38 0 -60 -32.5t-22 -93.5q0 -60 22 -92.5t60 -32.5q39 0 61 32zM854.5 37q-43.5 50 -43.5 134q0 85 43.5 134.5t115.5 49.5
t115.5 -49.5t43.5 -134.5q0 -84 -43.5 -134t-115.5 -50t-115.5 50zM1031 78q22 32 22 93t-22 93.5t-61 32.5t-61 -32.5t-22 -93.5t22 -93t61 -32t61 32z" />
    <glyph glyph-name="minute" unicode="&#x2032;" horiz-adv-x="231" 
d="M99 668h90l-65 -232h-66z" />
    <glyph glyph-name="second" unicode="&#x2033;" horiz-adv-x="379" 
d="M98 668h88l-64 -232h-64zM249 668h88l-63 -232h-64z" />
    <glyph glyph-name="uni2034" unicode="&#x2034;" horiz-adv-x="532" 
d="M98 668h89l-64 -232h-64zM249 668h89l-64 -232h-64zM401 668h88l-64 -232h-64z" />
    <glyph glyph-name="guilsinglleft" unicode="&#x2039;" horiz-adv-x="291" 
d="M164 55l-124 200l124 194h70l-93 -194l93 -200h-70z" />
    <glyph glyph-name="guilsinglright" unicode="&#x203a;" horiz-adv-x="291" 
d="M148 255l-94 194h70l124 -194l-124 -200h-70z" />
    <glyph glyph-name="fraction" unicode="&#x2044;" horiz-adv-x="132" 
d="M-96 0h-82l409 668h83z" />
    <glyph glyph-name="uni2060" unicode="&#x2060;" horiz-adv-x="0" 
 />
    <glyph glyph-name="uni2070" unicode="&#x2070;" horiz-adv-x="390" 
d="M86.5 326q-41.5 52 -41.5 149q0 96 41.5 148t108.5 52t109 -52t42 -148q0 -97 -42 -149t-109 -52t-108.5 52zM250.5 368q19.5 35 19.5 107t-19.5 107t-55.5 35q-35 0 -55 -35.5t-20 -106.5q0 -72 20 -107t55 -35q36 0 55.5 35z" />
    <glyph glyph-name="uni2074" unicode="&#x2074;" horiz-adv-x="365" 
d="M331 359h-60v-78h-72v78h-166v67l133 242h105v-251h60v-58zM90 416h112v129q0 24 3 84h-4q-16 -42 -34 -75z" />
    <glyph glyph-name="uni2075" unicode="&#x2075;" horiz-adv-x="349" 
d="M274 502.5q34 -36.5 34 -96.5q0 -61 -41 -96.5t-99 -35.5q-48 0 -82 20t-50 55l53 26q24 -43 76 -43q30 0 50 19.5t20 54.5q0 34 -19.5 54.5t-48.5 20.5q-40 0 -64 -33l-55 10l31 210h212v-58h-159l-15 -101h3q25 30 68 30q52 0 86 -36.5z" />
    <glyph glyph-name="uni2076" unicode="&#x2076;" horiz-adv-x="368" 
d="M291 500q35 -36 35 -92q0 -61 -40.5 -97.5t-97.5 -36.5q-63 0 -104 45t-41 145q0 68 22 116t59.5 71.5t83.5 23.5q35 0 62 -11.5t45 -29.5l-34 -46q-31 29 -70 29q-90 0 -96 -132h2q12 22 35 36.5t55 14.5q49 0 84 -36zM235 352q19 20 19 53t-19.5 53t-48.5 20t-48.5 -20
t-19.5 -53q0 -32 20 -52.5t48 -20.5q30 0 49 20z" />
    <glyph glyph-name="uni2077" unicode="&#x2077;" horiz-adv-x="315" 
d="M286 668v-60q-116 -116 -120 -327h-78q1 75 22.5 141t53 114t63.5 73v4l-21 -1q-24 -2 -36 -2h-140v58h256z" />
    <glyph glyph-name="uni2078" unicode="&#x2078;" horiz-adv-x="375" 
d="M310.5 442q21.5 -23 21.5 -56q0 -51 -40.5 -81.5t-106.5 -30.5q-65 0 -103.5 27.5t-38.5 75.5q0 37 21.5 61.5t55.5 39.5v4q-28 15 -45.5 35.5t-17.5 53.5q0 47 37 75.5t95 28.5q55 0 92 -28t37 -74q0 -30 -16.5 -53t-45.5 -37v-4q33 -14 54.5 -37zM144 611.5
q-17 -13.5 -17 -37.5t17.5 -38.5t57.5 -31.5q49 26 49 68q0 25 -18.5 39t-44.5 14q-27 0 -44 -13.5zM241.5 340q19.5 14 19.5 40q0 25 -20.5 39.5t-68.5 35.5q-28 -13 -44 -31.5t-16 -42.5q0 -25 20 -40t54 -15q36 0 55.5 14z" />
    <glyph glyph-name="uni2079" unicode="&#x2079;" horiz-adv-x="357" 
d="M275 638q42 -37 42 -104q0 -66 -47 -137.5t-118 -125.5l-55 30q46 37 77 72t49 73h-3q-27 -29 -71 -29q-51 0 -83.5 35t-32.5 91q0 59 41 95.5t100 36.5t101 -37zM123 494.5q18 -19.5 51 -19.5q30 0 50 20t20 51t-19.5 51t-49.5 20t-50 -20t-20 -53q0 -30 18 -49.5z" />
    <glyph glyph-name="uni207A" unicode="&#x207a;" horiz-adv-x="362" 
d="M326 431h-115v-119h-60v119h-114v56h114v119h60v-119h115v-56z" />
    <glyph glyph-name="uni207B" unicode="&#x207b;" horiz-adv-x="399" 
d="M55 487h289v-56h-289v56z" />
    <glyph glyph-name="uni207C" unicode="&#x207c;" horiz-adv-x="399" 
d="M55 548h289v-56h-289v56zM55 428h289v-56h-289v56z" />
    <glyph glyph-name="uni207D" unicode="&#x207d;" horiz-adv-x="213" 
d="M126.5 344q19.5 -60 55.5 -104l-44 -26q-95 107 -95 255q0 147 94 254l45 -27q-36 -44 -55.5 -103t-19.5 -124t19.5 -125z" />
    <glyph glyph-name="uni207E" unicode="&#x207e;" horiz-adv-x="213" 
d="M86.5 593q-19.5 59 -55.5 103l44 27q95 -107 95 -254q0 -148 -95 -255l-44 26q36 44 55.5 104t19.5 125t-19.5 124z" />
    <glyph glyph-name="uni2080" unicode="&#x2080;" horiz-adv-x="390" 
d="M86.5 -105q-41.5 52 -41.5 149q0 96 41.5 148t108.5 52t109 -52t42 -148q0 -97 -42 -149t-109 -52t-108.5 52zM250.5 -63q19.5 35 19.5 107t-19.5 107t-55.5 35q-35 0 -55 -35.5t-20 -106.5q0 -72 20 -107t55 -35q36 0 55.5 35z" />
    <glyph glyph-name="uni2081" unicode="&#x2081;" horiz-adv-x="285" 
d="M255 -92v-58h-210v58h72v226q-25 -13 -71 -15v56q40 2 61 17.5t26 44.5h56v-329h66z" />
    <glyph glyph-name="uni2082" unicode="&#x2082;" horiz-adv-x="352" 
d="M43 -94q74 56 112.5 91.5t56 65t17.5 61.5q0 27 -15.5 44.5t-42.5 17.5q-26 0 -42.5 -17t-16.5 -43h-67q0 55 36.5 86.5t90.5 31.5q59 0 94.5 -32t35.5 -86q0 -60 -43 -108t-135 -109v-4q30 3 58 3h125v-58h-264v56z" />
    <glyph glyph-name="uni2083" unicode="&#x2083;" horiz-adv-x="352" 
d="M284.5 21q23.5 -25 23.5 -64q0 -52 -39.5 -83t-102.5 -31q-46 0 -81 19.5t-51 60.5l52 23q26 -47 77 -47q32 0 51.5 17t19.5 46q0 30 -22.5 46.5t-52.5 16.5h-27v52h28q28 0 46 16t18 42q0 24 -16.5 39t-43.5 15q-23 0 -40.5 -12.5t-26.5 -34.5l-53 22q11 36 45 58t78 22
q56 0 92 -28t36 -73q0 -33 -19.5 -54.5t-48.5 -30.5v-4q34 -8 57.5 -33z" />
    <glyph glyph-name="uni2084" unicode="&#x2084;" horiz-adv-x="365" 
d="M331 -72h-60v-78h-72v78h-166v67l133 242h105v-251h60v-58zM90 -15h112v129q0 24 3 84h-4q-16 -42 -34 -75z" />
    <glyph glyph-name="uni2085" unicode="&#x2085;" horiz-adv-x="349" 
d="M274 71.5q34 -36.5 34 -96.5q0 -61 -41 -96.5t-99 -35.5q-48 0 -82 20t-50 55l53 26q24 -43 76 -43q30 0 50 19.5t20 54.5q0 34 -19.5 54.5t-48.5 20.5q-40 0 -64 -33l-55 10l31 210h212v-58h-159l-15 -101h3q25 30 68 30q52 0 86 -36.5z" />
    <glyph glyph-name="uni2086" unicode="&#x2086;" horiz-adv-x="368" 
d="M291 69q35 -36 35 -92q0 -61 -40.5 -97.5t-97.5 -36.5q-63 0 -104 45t-41 145q0 68 22 116t59.5 71.5t83.5 23.5q35 0 62 -11.5t45 -29.5l-34 -46q-31 29 -70 29q-90 0 -96 -132h2q12 22 35 36.5t55 14.5q49 0 84 -36zM235 -79q19 20 19 53t-19.5 53t-48.5 20t-48.5 -20
t-19.5 -53q0 -32 20 -52.5t48 -20.5q30 0 49 20z" />
    <glyph glyph-name="uni2087" unicode="&#x2087;" horiz-adv-x="315" 
d="M286 237v-60q-116 -116 -120 -327h-78q1 75 22.5 141t53 114t63.5 73v4l-21 -1q-24 -2 -36 -2h-140v58h256z" />
    <glyph glyph-name="uni2088" unicode="&#x2088;" horiz-adv-x="375" 
d="M310.5 12q21.5 -23 21.5 -56q0 -51 -40.5 -81.5t-106.5 -30.5q-65 0 -103.5 27.5t-38.5 75.5q0 37 21.5 61.5t55.5 39.5v4q-28 15 -45.5 35.5t-17.5 53.5q0 47 37 75.5t95 28.5q55 0 92 -28t37 -74q0 -30 -16.5 -53t-45.5 -37v-4q33 -14 54.5 -37zM144 181.5
q-17 -13.5 -17 -37.5t17.5 -38.5t57.5 -31.5q49 26 49 68q0 25 -18.5 39t-44.5 14q-27 0 -44 -13.5zM241.5 -90q19.5 14 19.5 40q0 25 -20.5 39.5t-68.5 35.5q-28 -13 -44 -31.5t-16 -42.5q0 -25 20 -40t54 -15q36 0 55.5 14z" />
    <glyph glyph-name="uni2089" unicode="&#x2089;" horiz-adv-x="357" 
d="M275 211q42 -37 42 -104q0 -66 -47 -137.5t-118 -125.5l-55 30q46 37 77 72t49 73h-3q-27 -29 -71 -29q-51 0 -83.5 35t-32.5 91q0 59 41 95.5t100 36.5t101 -37zM123 67.5q18 -19.5 51 -19.5q30 0 50 20t20 51t-19.5 51t-49.5 20t-50 -20t-20 -53q0 -30 18 -49.5z" />
    <glyph glyph-name="colonmonetary" unicode="&#x20a1;" 
d="M439 57.5q-44 -43.5 -106 -53.5l-12 -92h-57l12 88q-44 3 -72 15l-13 -103h-58l18 133q-51 40 -79 112t-28 174q0 141 50 226t138 105l11 87h57l-10 -81q36 0 72 -11l12 92h57l-16 -119q61 -43 85 -128l-72 -27q-10 33 -26 57l-58 -446q63 28 91 122l71 -28
q-23 -79 -67 -122.5zM285 76l66 503q-27 13 -63 13h-8l-65 -494q33 -22 70 -22zM165 156l55 417q-42 -26 -65.5 -86.5t-23.5 -153.5q0 -112 34 -177z" />
    <glyph glyph-name="uni20A6" unicode="&#x20a6;" 
d="M468 381v-89h68v-63h-68v-229h-110l-89 229h-117v-229h-78v229h-68v63h68v89h-68v64h68v223h113l86 -223h118v223h77v-223h68v-64h-68zM152 463v-18h32l-8 21q-15 47 -23 87h-4q3 -45 3 -90zM244 292l-35 89h-57v-89h92zM391 381h-93l34 -89h59v89zM391 207v22h-35
l10 -25q11 -34 17 -59l7 -27h4q-3 51 -3 89z" />
    <glyph glyph-name="uni20A9" unicode="&#x20a9;" horiz-adv-x="800" 
d="M668 397l-16 -89h96v-64h-107l-43 -244h-98l-43 244h-112l-42 -244h-100l-43 244h-107v64h96l-16 89h-80v63h69l-36 208h87l31 -208h114l36 208h94l37 -208h115l30 208h85l-36 -208h69v-63h-80zM396 545q-1 -8 -2 -19t-4 -25l-7 -41h35l-7 40q-4 25 -8 69h-4zM227 308h65
l15 89h-93zM445 308l-16 89h-57l-16 -89h89zM590 397h-93l16 -89h64zM268 168l13 76h-44l11 -75l8 -62h4q4 38 8 61zM568 244h-44l14 -76q7 -53 8 -61h4l3 29q2 10 4 32z" />
    <glyph glyph-name="uni20AA" unicode="&#x20aa;" horiz-adv-x="774" 
d="M443 480q38 -14 53.5 -49t15.5 -102v-136h-75v119q0 50 -7 71.5t-31 29.5t-80 8h-145v-421h-85v494h243q73 0 111 -14zM270 0v305h76v-231h30q94 0 147 23t76.5 79.5t23.5 160.5v157h84v-156q0 -131 -35 -204.5t-108.5 -103.5t-196.5 -30h-97z" />
    <glyph glyph-name="dong" unicode="&#x20ab;" 
d="M486 620v-63h-73v-443h-78v63h-4q-32 -71 -108 -71q-45 0 -81 23.5t-56.5 67.5t-20.5 104q0 61 20.5 106t56.5 69t79 24q76 0 108 -66h4v123h-151v63h151v63h80v-63h73zM310 203.5q25 36.5 25 99.5t-25 99t-68 36q-42 0 -68 -36t-26 -101q0 -63 26 -98.5t68 -35.5
q43 0 68 36.5zM66 63h391v-63h-391v63z" />
    <glyph glyph-name="Euro" unicode="&#x20ac;" 
d="M527 150q-53 -162 -208 -162q-87 0 -148.5 62t-81.5 179h-75v63h68q-1 14 -1 42q0 17 2 47h-69v64h76q21 115 82.5 175t146.5 60q74 0 125 -40.5t76 -117.5l-73 -24q-19 58 -50.5 83t-74.5 25q-52 0 -90 -40.5t-53 -120.5h188v-64h-196l-1 -47q0 -29 1 -42h196v-63h-189
q15 -83 53 -125t92 -42q46 0 78.5 27.5t51.5 86.5z" />
    <glyph glyph-name="uni20AD" unicode="&#x20ad;" 
d="M187 315h-20v-315h-87v315h-58v64h58v289h87v-289h22l215 289h96l-224 -289h192v-64h-183l246 -315h-107z" />
    <glyph glyph-name="uni20AE" unicode="&#x20ae;" 
d="M315 597v-145l118 43v-68l-118 -43v-95l118 43v-69l-118 -42v-221h-86v195l-118 -43v68l118 43v95l-118 -43v68l118 43v171h-186v71h457v-71h-185z" />
    <glyph glyph-name="uni20B1" unicode="&#x20b1;" 
d="M532 483h-67q1 -9 1 -29q0 -19 -1 -28h67v-63h-80q-22 -63 -75 -96t-126 -33h-89v-234h-86v363h-66v63h66v57h-66v63h66v122h175q74 0 126 -31t74 -91h81v-63zM162 604v-58h196q-30 58 -115 58h-81zM375 483h-213v-57h213q1 9 1 27q0 21 -1 30zM360 363h-198v-65h81
q87 0 117 65z" />
    <glyph glyph-name="uni20B2" unicode="&#x20b2;" 
d="M503 75q-80 -69 -190 -74v-89h-66v91q-99 15 -154.5 97.5t-55.5 233.5q0 147 55 232t155 99v84h66v-82q130 -11 188 -135l-68 -40q-41 91 -120 100v-517q62 5 107 39v153h-68v72h151v-264zM247 82v505q-58 -17 -89 -80t-31 -172q0 -216 120 -253z" />
    <glyph glyph-name="uni20B4" unicode="&#x20b4;" 
d="M258 296v-4h255v-63h-326q-22 -32 -22 -72q0 -43 30 -69t87 -26q43 0 85.5 19t77.5 57l48 -57q-43 -45 -98 -69t-118 -24q-91 0 -145.5 44t-54.5 123q0 41 18 74h-68v63h110q47 36 127 85v4h-237v64h315q30 30 30 71t-25.5 65t-73.5 24q-80 0 -147 -64l-45 59
q82 80 198 80q84 0 132.5 -44t48.5 -115q0 -46 -25 -76h78v-64h-120q-73 -45 -135 -85z" />
    <glyph glyph-name="uni20B5" unicode="&#x20b5;" 
d="M319 2v-90h-66v90q-97 14 -153 98.5t-56 230.5q0 148 56 235t153 100v83h66v-83q65 -8 112 -49t69 -115l-71 -27q-32 100 -110 114v-510q83 16 116 129l72 -28q-49 -164 -188 -178zM165 160q32 -64 88 -79v506q-56 -15 -88 -79t-32 -175q0 -109 32 -173z" />
    <glyph glyph-name="uni20B8" unicode="&#x20b8;" 
d="M499 668v-71h-457v71h457zM42 509h457v-71h-185v-438h-86v438h-186v71z" />
    <glyph glyph-name="uni20B9" unicode="&#x20b9;" 
d="M323 597v-4q31 -13 53 -40t30 -64h93v-63h-90q-5 -67 -41 -109t-104 -62l183 -255h-109l-166 241q-30 -2 -48 -2h-41v71h36q98 0 145 28t55 88h-276v63h275q-11 54 -60 81t-142 27h-73v71h456v-71h-176z" />
    <glyph glyph-name="uni20BA" unicode="&#x20ba;" 
d="M132 229l-93 -34v67l93 34v94l-93 -33v67l93 34v210h86v-189l142 53v-68l-142 -52v-95l142 53v-68l-142 -52v-169q88 4 141.5 49t78.5 138l81 -30q-34 -117 -113 -177.5t-219 -60.5h-55v229z" />
    <glyph glyph-name="uni20BC" unicode="&#x20bc;" horiz-adv-x="770" 
d="M637.5 441q80.5 -116 80.5 -348v-93h-86v86q0 195 -57 295t-153 115v-456h-77v456q-96 -17 -151.5 -117t-55.5 -293v-86h-86v93q0 232 79.5 347.5t212.5 130.5v109h78v-109q135 -14 215.5 -130z" />
    <glyph glyph-name="uni20BD" unicode="&#x20bd;" 
d="M185 280v-85h192v-63h-192v-132h-86v132h-68v63h68v86h-68v67h68v320h188q102 0 163 -49t61 -145q0 -97 -60 -145.5t-164 -48.5h-102zM185 599v-250h95q141 0 141 125t-138 125h-98z" />
    <glyph glyph-name="uni20BF" unicode="&#x20bf;" 
d="M454.5 72q-35.5 -44 -97.5 -61v-99h-62v89q-8 -1 -23 -1h-52v-88h-62v88h-88v668h88v81h62v-81h46q20 0 29 -1v82h62v-94q53 -17 81.5 -57.5t28.5 -100.5q0 -104 -98 -141v-6q57 -18 89 -59t32 -104q0 -71 -35.5 -115zM156 597v-220h97q61 0 94.5 27t33.5 83t-28 83
t-88 27h-109zM363.5 98q37.5 27 37.5 93q0 119 -142 119h-103v-239h106q64 0 101.5 27z" />
    <glyph glyph-name="uni2113" unicode="&#x2113;" horiz-adv-x="444" 
d="M412 71q-23 -34 -64.5 -58t-93.5 -24q-67 0 -104 32.5t-37 116.5v52q-16 -7 -64 -26l-17 66q45 18 81 36v212q0 61 6.5 101.5t23.5 67.5q36 60 115 60q59 0 95 -41t36 -122q0 -189 -191 -308v-78q0 -54 15.5 -76.5t51.5 -22.5q33 0 61 18t44 43zM198 319q64 49 88.5 105
t24.5 123q0 89 -51 89q-30 0 -46 -31q-9 -19 -12.5 -49.5t-3.5 -79.5v-157z" />
    <glyph glyph-name="uni2116" unicode="&#x2116;" horiz-adv-x="1026" 
d="M696.5 355.5q-43.5 49.5 -43.5 134.5q0 84 43.5 134t115.5 50t115.5 -50t43.5 -134q0 -85 -43.5 -134.5t-115.5 -49.5t-115.5 49.5zM95 668h110l249 -478q2 -5 15 -29.5t21 -47.5h4q-3 44 -3 87v468h87v-668h-112l-248 478q-24 49 -35 77h-4q3 -42 3 -87v-468h-87v668z
M873 397q22 32 22 93t-22 93t-61 32t-61 -32t-22 -93t22 -93t61 -32t61 32zM959 188h-293v61h293v-61z" />
    <glyph glyph-name="uni2117" unicode="&#x2117;" horiz-adv-x="751" 
d="M539.5 636q72.5 -42 113.5 -120t41 -183t-41 -183t-113.5 -119.5t-163.5 -41.5t-163.5 41.5t-114 119.5t-41.5 183t41.5 183t114 120t163.5 42t163.5 -42zM512.5 75.5q59.5 35.5 92.5 102t33 155.5t-33 156t-92.5 102.5t-136.5 35.5t-137 -35.5t-93.5 -102.5t-33.5 -156
t33.5 -155.5t93.5 -102t137 -35.5t136.5 35.5zM498 505q39 -31 39 -93q0 -61 -39.5 -92.5t-107.5 -31.5h-60v-156h-70v404h130q69 0 108 -31zM447 360.5q19 16.5 19 51.5t-19 51.5t-60 16.5h-57v-136h57q41 0 60 16.5z" />
    <glyph glyph-name="uni2120" unicode="&#x2120;" horiz-adv-x="836" 
d="M138.5 359.5q27.5 -11.5 54.5 -11.5q33 0 52.5 12.5t19.5 35.5q0 22 -17 35.5t-48 25.5l-42 17q-85 31 -85 102q0 43 34 71.5t87 28.5q74 0 126 -47l-32 -42q-38 35 -90 35q-28 0 -44 -12.5t-16 -31.5q0 -21 14 -32.5t39 -21.5l44 -18q42 -16 68.5 -39.5t26.5 -65.5
q0 -51 -37.5 -78.5t-97.5 -27.5q-82 0 -136 56l33 41q19 -21 46.5 -32.5zM385 668h104l70 -244q7 -39 9 -50h4q3 19 9 49l72 245h102v-368h-65v246q0 39 3 67h-4l-17 -65l-73 -247h-62l-72 248l-10 41q-1 6 -5 23h-4q2 -28 2 -67v-246h-63v368z" />
    <glyph glyph-name="trademark" unicode="&#x2122;" horiz-adv-x="791" 
d="M306 613h-102v-313h-67v313h-103v55h272v-55zM710 668v-368h-65v246q0 39 3 67h-4l-17 -65l-73 -247h-62l-72 248l-10 41q-1 6 -5 23h-4q2 -28 2 -67v-246h-63v368h104l69 -244q7 -30 10 -50h4q5 32 9 49l72 245h102z" />
    <glyph glyph-name="uni2126" unicode="&#x2126;" horiz-adv-x="701" 
d="M61 69h145v4q-62 45 -100.5 120.5t-38.5 173.5q0 99 37.5 169.5t102 107t144.5 36.5t144.5 -36.5t101.5 -107t37 -169.5q0 -98 -38.5 -173.5t-100.5 -120.5v-4h146v-69h-230v73q58 46 94.5 117.5t36.5 163.5q0 124 -53.5 187t-137.5 63t-137.5 -63t-53.5 -187
q0 -92 36.5 -163.5t94.5 -117.5v-73h-230v69z" />
    <glyph glyph-name="estimated" unicode="&#x212e;" horiz-adv-x="681" 
d="M167 326v-197q30 -45 81 -70t114 -25q74 0 125.5 27t91.5 91l38 -29q-51 -75 -113 -104t-142 -29q-93 0 -161.5 42t-105.5 119t-37 181q0 105 37 183t103 120.5t150 42.5q88 0 150.5 -39t95.5 -110t33 -165q0 -23 -1 -38h-459zM243 610q-47 -25 -76 -69v-177h350v197
q-59 74 -169 74q-58 0 -105 -25z" />
    <glyph glyph-name="uni2153" unicode="&#x2153;" horiz-adv-x="819" 
d="M255 339v-58h-210v58h72v226q-25 -13 -71 -15v56q40 2 61 17.5t26 44.5h56v-329h66zM232 0h-82l409 668h83zM751.5 171q23.5 -25 23.5 -64q0 -52 -39.5 -83t-102.5 -31q-46 0 -81 19.5t-51 60.5l52 23q26 -47 77 -47q32 0 51.5 17t19.5 46q0 30 -22.5 46.5t-52.5 16.5
h-27v52h28q28 0 46 16t18 42q0 24 -16.5 39t-43.5 15q-23 0 -40.5 -12.5t-26.5 -34.5l-53 22q11 36 45 58t78 22q56 0 92 -28t36 -73q0 -33 -19.5 -54.5t-48.5 -30.5v-4q34 -8 57.5 -33z" />
    <glyph glyph-name="uni2154" unicode="&#x2154;" horiz-adv-x="872" 
d="M43 337q74 56 112.5 91.5t56 65t17.5 61.5q0 27 -15.5 44.5t-42.5 17.5q-26 0 -42.5 -17t-16.5 -43h-67q0 55 36.5 86.5t90.5 31.5q59 0 94.5 -32t35.5 -86q0 -60 -43 -108t-135 -109v-4q30 3 58 3h125v-58h-264v56zM285 0h-82l409 668h83zM804.5 171q23.5 -25 23.5 -64
q0 -52 -39.5 -83t-102.5 -31q-46 0 -81 19.5t-51 60.5l52 23q26 -47 77 -47q32 0 51.5 17t19.5 46q0 30 -22.5 46.5t-52.5 16.5h-27v52h28q28 0 46 16t18 42q0 24 -16.5 39t-43.5 15q-23 0 -40.5 -12.5t-26.5 -34.5l-53 22q11 36 45 58t78 22q56 0 92 -28t36 -73
q0 -33 -19.5 -54.5t-48.5 -30.5v-4q34 -8 57.5 -33z" />
    <glyph glyph-name="arrowleft" unicode="&#x2190;" horiz-adv-x="672" 
d="M623 275h-459l148 -142l-50 -50l-227 228l227 226l50 -49l-148 -142h459v-71z" />
    <glyph glyph-name="arrowup" unicode="&#x2191;" horiz-adv-x="490" 
d="M414 336l-133 140v-421h-72v421l-132 -140l-50 50l218 217l218 -217z" />
    <glyph glyph-name="arrowright" unicode="&#x2192;" horiz-adv-x="672" 
d="M637 311l-227 -228l-50 50l148 142h-459v71h459l-148 142l50 49z" />
    <glyph glyph-name="arrowdown" unicode="&#x2193;" horiz-adv-x="505" 
d="M480 243l-228 -226l-227 226l50 50l141 -147v449h72v-450l142 148z" />
    <glyph glyph-name="uni2196" unicode="&#x2196;" horiz-adv-x="551" 
d="M470 73l-334 337l5 -221h-71v336h334v-71l-219 4l335 -335z" />
    <glyph glyph-name="uni2197" unicode="&#x2197;" horiz-adv-x="551" 
d="M480 525v-336h-70l4 220l-333 -336l-51 50l335 335l-218 -4v71h333z" />
    <glyph glyph-name="uni2198" unicode="&#x2198;" horiz-adv-x="561" 
d="M483 440v-336h-333v71l217 -4l-334 335l51 50l333 -336l-4 220h70z" />
    <glyph glyph-name="uni2199" unicode="&#x2199;" horiz-adv-x="561" 
d="M194 171l217 4v-71h-333v336h70l-5 -221l334 337l51 -50z" />
    <glyph glyph-name="partialdiff" unicode="&#x2202;" horiz-adv-x="547" 
d="M402.5 592q84.5 -115 84.5 -313q0 -144 -56.5 -216.5t-163.5 -72.5q-67 0 -116.5 31t-76 87.5t-26.5 130.5q0 72 25.5 126.5t71.5 84t107 29.5q44 0 80.5 -17.5t58.5 -53.5l3 1q-18 110 -92 168t-202 62l16 70q202 -2 286.5 -117zM363.5 108.5q34.5 47.5 34.5 131.5
q0 78 -34.5 124t-93.5 46q-60 0 -95.5 -46t-35.5 -129q0 -82 35 -128t96 -46q59 0 93.5 47.5z" />
    <glyph glyph-name="emptyset" unicode="&#x2205;" horiz-adv-x="801" 
d="M669 548q67 -94 67 -214q0 -97 -43 -176t-119.5 -124.5t-172.5 -45.5q-62 0 -117.5 20t-98.5 57l-77 -77l-49 48l78 78q-35 45 -54 101t-19 119q0 96 44 175t121 124.5t172 45.5q64 0 121 -21t100 -60l70 70l49 -48zM189 166l382 382q-34 30 -77.5 46.5t-92.5 16.5
q-74 0 -134 -36.5t-94 -99.5t-34 -141q0 -96 50 -168zM616 495l-381 -380q72 -59 166 -59q74 0 133.5 36.5t93.5 100t34 141.5q0 90 -46 161z" />
    <glyph glyph-name="uni2206" unicode="&#x2206;" horiz-adv-x="622" 
d="M587 63v-63h-552v63l225 605h103zM124 71h368l-156 441l-16 46l-9 27h-4l-24 -71z" />
    <glyph glyph-name="product" unicode="&#x220f;" horiz-adv-x="657" 
d="M561 -110h-91v703h-284v-703h-91v778h466v-778z" />
    <glyph glyph-name="summation" unicode="&#x2211;" horiz-adv-x="523" 
d="M481 595h-341l194 -316l-194 -316h341v-73h-433v79l190 310l-190 310v79h433v-73z" />
    <glyph glyph-name="minus" unicode="&#x2212;" 
d="M59 338h423v-73h-423v73z" />
    <glyph glyph-name="uni2219" unicode="&#x2219;" 
d="M230.5 261.5q-15.5 15.5 -15.5 39.5t15.5 39.5t40.5 15.5t40.5 -15.5t15.5 -39.5t-15.5 -39.5t-40.5 -15.5t-40.5 15.5z" />
    <glyph glyph-name="radical" unicode="&#x221a;" horiz-adv-x="537" 
d="M515 817l-186 -1000h-98l-120 372h-100v69h161l85 -274q7 -20 17 -68h4q2 22 12 84l140 817h85z" />
    <glyph glyph-name="infinity" unicode="&#x221e;" horiz-adv-x="732" 
d="M596 437q34 -17 55.5 -51.5t21.5 -83.5t-21.5 -83.5t-55 -51.5t-69.5 -17q-50 0 -87 22.5t-74 71.5q-35 -49 -72 -71.5t-88 -22.5q-37 0 -70.5 17t-55 51.5t-21.5 83.5t21.5 83.5t55 51.5t70.5 17q51 0 88 -22.5t72 -71.5q36 49 72.5 71.5t87.5 22.5q36 0 70 -17z
M269 236.5q25 19.5 58 65.5q-32 46 -57.5 65.5t-58.5 19.5q-34 0 -57 -23.5t-23 -61.5t23 -61.5t57 -23.5q33 0 58 19.5zM578.5 240.5q22.5 23.5 22.5 61.5t-22.5 61.5t-56.5 23.5t-59.5 -19.5t-58.5 -65.5q33 -46 58.5 -65.5t59.5 -19.5t56.5 23.5z" />
    <glyph glyph-name="integral" unicode="&#x222b;" horiz-adv-x="345" 
d="M333 810v-70q-33 7 -58 7q-34 0 -49 -19.5t-15 -62.5v-715q0 -69 -35 -104.5t-93 -35.5q-38 0 -72 8v69q35 -7 58 -7q34 0 49 19.5t15 62.5v716q0 69 35 104t93 35q44 0 72 -7z" />
    <glyph glyph-name="congruent" unicode="&#x2245;" 
d="M314 553q-27 12 -60 34q-25 17 -43 25.5t-36 8.5q-24 0 -39.5 -16.5t-20.5 -57.5h-66q6 80 39 114.5t82 34.5q28 0 52.5 -11t61.5 -34q30 -18 47 -26.5t35 -8.5q24 0 39 15.5t21 58.5h66q-6 -79 -40 -114t-80 -35q-31 0 -58 12zM49 441h444v-72h-444v72zM49 234h444v-72
h-444v72z" />
    <glyph glyph-name="approxequal" unicode="&#x2248;" 
d="M317.5 344.5q-25.5 11.5 -62.5 34.5q-31 19 -49 26.5t-36 7.5q-25 0 -40.5 -16.5t-21.5 -58.5h-70q7 80 41.5 114.5t85.5 34.5q30 0 58 -12t63 -33q30 -19 48 -26.5t40 -7.5q26 0 40.5 15t20.5 58h69q-7 -79 -42 -113.5t-85 -34.5q-34 0 -59.5 11.5zM319.5 139
q-25.5 11 -63.5 34q-29 19 -47.5 27t-36.5 8q-26 0 -41.5 -16.5t-20.5 -58.5h-70q7 80 41 114.5t85 34.5q31 0 60 -12.5t61 -32.5q34 -20 50.5 -27.5t38.5 -7.5q25 0 39.5 15.5t20.5 58.5h70q-7 -79 -42 -113.5t-85 -34.5q-34 0 -59.5 11z" />
    <glyph glyph-name="uni2259" unicode="&#x2259;" 
d="M174 513h-78l149 227h52l149 -227h-78l-97 148zM493 438v-72h-444v72h444zM49 237h444v-72h-444v72z" />
    <glyph glyph-name="notequal" unicode="&#x2260;" 
d="M339 369l-67 -135h221v-72h-257l-59 -119h-69l59 119h-118v72h153l67 135h-220v72h256l54 110h70l-55 -110h119v-72h-154z" />
    <glyph glyph-name="lessequal" unicode="&#x2264;" 
d="M481 507l-342 -140l342 -140v-80l-428 182v76l428 182v-80zM55 82h426v-71h-426v71z" />
    <glyph glyph-name="greaterequal" unicode="&#x2265;" 
d="M488 405v-76l-428 -182v80l343 140l-343 140v80zM60 82h427v-71h-427v71z" />
    <glyph glyph-name="dotmath" unicode="&#x22c5;" 
d="M230.5 261.5q-15.5 15.5 -15.5 39.5t15.5 39.5t40.5 15.5t40.5 -15.5t15.5 -39.5t-15.5 -39.5t-40.5 -15.5t-40.5 15.5z" />
    <glyph glyph-name="uni2300" unicode="&#x2300;" 
d="M454 435q42 -58 42 -139q0 -68 -30 -121.5t-82 -83.5t-115 -30q-79 0 -140 47l-52 -52l-47 48l53 53q-41 60 -41 139q0 68 30 121t82 83t115 30q78 0 140 -46l57 57l46 -48zM190 442.5q-36 -21.5 -56.5 -60t-20.5 -86.5q0 -50 22 -89l226 226q-40 31 -92 31
q-43 0 -79 -21.5zM348 148.5q36 21.5 57 60.5t21 87t-22 89l-227 -227q40 -31 92 -31q43 0 79 21.5z" />
    <glyph glyph-name="filledbox" unicode="&#x25a0;" horiz-adv-x="857" 
d="M762 668v-668h-668v668h668z" />
    <glyph glyph-name="uni25A1" unicode="&#x25a1;" horiz-adv-x="857" 
d="M94 668h668v-668h-668v668zM707 52v564h-557v-564h557z" />
    <glyph glyph-name="triagup" unicode="&#x25b2;" horiz-adv-x="754" 
d="M740 0h-726l363 685z" />
    <glyph glyph-name="uni25B3" unicode="&#x25b3;" horiz-adv-x="754" 
d="M740 0h-726l363 685zM377 569l-274 -517h548z" />
    <glyph glyph-name="uni25B4" unicode="&#x25b4;" horiz-adv-x="369" 
d="M342 204h-315l157 279z" />
    <glyph glyph-name="uni25B8" unicode="&#x25b8;" horiz-adv-x="369" 
d="M65 186v315l279 -157z" />
    <glyph glyph-name="triagdn" unicode="&#x25bc;" horiz-adv-x="754" 
d="M14 668h726l-363 -685z" />
    <glyph glyph-name="uni25BD" unicode="&#x25bd;" horiz-adv-x="754" 
d="M740 668l-363 -685l-363 685h726zM103 616l274 -517l274 517h-548z" />
    <glyph glyph-name="uni25BE" unicode="&#x25be;" horiz-adv-x="369" 
d="M27 473h315l-158 -279z" />
    <glyph glyph-name="uni25C2" unicode="&#x25c2;" horiz-adv-x="369" 
d="M304 501v-315l-279 157z" />
    <glyph glyph-name="lozenge" unicode="&#x25ca;" 
d="M516 340l-223 -340h-44l-223 340l223 340h44zM109 340l162 -251l161 251l-161 251z" />
    <glyph glyph-name="circle" unicode="&#x25cb;" horiz-adv-x="799" 
d="M219.5 19q-80.5 48 -126 131t-45.5 184t45.5 184t126 130.5t181.5 47.5t181 -47.5t125 -130t45 -184.5t-45 -185t-125 -130.5t-181 -47.5t-181.5 48zM552.5 64q66.5 41 103.5 111.5t37 158.5q0 87 -37 158t-103.5 111.5t-151.5 40.5q-86 0 -153 -40.5t-104.5 -111.5
t-37.5 -158t37.5 -158t104.5 -112t153 -41q85 0 151.5 41z" />
    <glyph glyph-name="uni25CF" unicode="&#x25cf;" horiz-adv-x="799" 
d="M219.5 19q-80.5 48 -126 131t-45.5 184t45.5 184t126 130.5t181.5 47.5t181 -47.5t125 -130t45 -184.5t-45 -185t-125 -130.5t-181 -47.5t-181.5 48z" />
    <glyph glyph-name="fi" unicode="&#xfb01;" horiz-adv-x="602" 
d="M225 617.5q-15 -19.5 -15 -62.5v-61h114v-68h-114v-426h-89v426h-93v68h93v74q0 68 37.5 103.5t100.5 35.5q45 0 73 -8v-69q-35 7 -58 7q-34 0 -49 -19.5zM520 494v-494h-89v494h89zM432 599q-17 17 -17 43q0 27 17 44t44 17t43.5 -17t16.5 -44q0 -26 -16.5 -43
t-43.5 -17t-44 17z" />
    <glyph glyph-name="fl" unicode="&#xfb02;" horiz-adv-x="620" 
d="M225 617.5q-15 -19.5 -15 -62.5v-61h114v-68h-114v-426h-89v426h-93v68h93v74q0 68 37.5 103.5t100.5 35.5q45 0 73 -8v-69q-35 7 -58 7q-34 0 -49 -19.5zM589 -2q-26 -8 -65 -8q-43 0 -69 23.5t-26 73.5v608h89v-587q0 -48 34 -48q19 0 37 6v-68z" />
    <glyph glyph-name="uniFEFF" unicode="&#xfeff;" horiz-adv-x="0" 
 />
    <glyph glyph-name="NULL" horiz-adv-x="0" 
 />
    <glyph glyph-name="uni00A40301" horiz-adv-x="355" 
d="M51 -114q-20 2 -41 9v76q30 -11 70 -11q46 0 68 24.5t22 76.5v607h91v-621q0 -79 -44 -121t-118 -42q-28 0 -48 2zM252 894h100l-108 -142h-77z" />
    <glyph glyph-name="L_periodcentered.latnCAT" horiz-adv-x="513" 
d="M472 75v-75h-378v668h91v-593h287zM352.5 319.5q-15.5 15.5 -15.5 39.5t15.5 39.5t40.5 15.5t41 -15.5t16 -39.5t-16 -39.5t-41 -15.5t-40.5 15.5z" />
    <glyph glyph-name="i.loclTRK" horiz-adv-x="253" 
d="M171 494v-494h-89v494h89zM83 599q-17 17 -17 43q0 27 17 44t44 17t43.5 -17t16.5 -44q0 -26 -16.5 -43t-43.5 -17t-44 17z" />
    <glyph glyph-name="uni006A0301" horiz-adv-x="261" 
d="M-32 -181v71q35 -9 57 -9q35 0 50 19.5t15 63.5v530h88v-544q0 -139 -135 -139q-41 0 -75 8zM182 743h96l-119 -166h-73z" />
    <glyph glyph-name="l_periodcentered.latnCAT" horiz-adv-x="358" 
d="M240 -2q-26 -8 -65 -8q-43 0 -69 23.5t-26 73.5v608h89v-587q0 -48 34 -48q19 0 37 6v-68zM264 319.5q-15 15.5 -15 39.5t15 39.5t39 15.5t39.5 -15.5t15.5 -39.5t-15.5 -39.5t-39.5 -15.5t-39 15.5z" />
    <glyph glyph-name="uni01F2.sc" horiz-adv-x="1136" 
d="M456 631.5q70 -36.5 110 -111.5t40 -186t-40 -186t-110 -111.5t-162 -36.5h-200v668h200q92 0 162 -36.5zM452 139.5q61 64.5 61 194.5t-61 194.5t-167 64.5h-100v-518h100q106 0 167 64.5zM1087 71v-71h-376v77l276 373h-264v72h363v-77l-278 -374h279z" />
    <glyph glyph-name="uni01C5.sc" horiz-adv-x="1136" 
d="M456 631.5q70 -36.5 110 -111.5t40 -186t-40 -186t-110 -111.5t-162 -36.5h-200v668h200q92 0 162 -36.5zM452 139.5q61 64.5 61 194.5t-61 194.5t-167 64.5h-100v-518h100q106 0 167 64.5zM1087 71v-71h-376v77l276 373h-264v72h363v-77l-278 -374h279zM1057 752
l-116 -147h-79l-115 147h75l80 -94l79 94h76z" />
    <glyph glyph-name="uni01C8.sc" horiz-adv-x="821" 
d="M472 75v-75h-378v668h91v-593h287zM520 -83v73q24 -8 56 -8q71 0 71 70v470h89v-480q0 -65 -38.5 -99t-102.5 -34q-43 0 -75 8z" />
    <glyph glyph-name="uni01CB.sc" horiz-adv-x="984" 
d="M94 668h110l249 -478q2 -5 15 -29.5t21 -47.5h4q-3 44 -3 87v468h87v-668h-112l-248 478q-25 49 -35 77h-4q3 -42 3 -87v-468h-87v668zM683 -83v73q24 -8 56 -8q71 0 71 70v470h89v-480q0 -65 -38.5 -99t-102.5 -34q-43 0 -75 8z" />
    <glyph glyph-name="a.sc" horiz-adv-x="532" 
d="M369 120h-212l-40 -120h-88l186 522h101l187 -522h-95zM346 190l-63 194q-11 33 -17 70h-3q-1 -5 -5 -24t-12 -44l-66 -196h166z" />
    <glyph glyph-name="aacute.sc" horiz-adv-x="532" 
d="M369 120h-212l-40 -120h-88l186 522h101l187 -522h-95zM346 190l-63 194q-11 33 -17 70h-3q-1 -5 -5 -24t-12 -44l-66 -196h166zM314 772h96l-119 -166h-73z" />
    <glyph glyph-name="abreve.sc" horiz-adv-x="532" 
d="M369 120h-212l-40 -120h-88l186 522h101l187 -522h-95zM346 190l-63 194q-11 33 -17 70h-3q-1 -5 -5 -24t-12 -44l-66 -196h166zM164.5 639.5q-39.5 37.5 -45.5 107.5h61q13 -84 86 -84q32 0 55 19.5t30 64.5h61q-6 -71 -45 -108t-101 -37t-101.5 37.5z" />
    <glyph glyph-name="uni01CE.sc" horiz-adv-x="532" 
d="M369 120h-212l-40 -120h-88l186 522h101l187 -522h-95zM346 190l-63 194q-11 33 -17 70h-3q-1 -5 -5 -24t-12 -44l-66 -196h166zM421 753l-116 -147h-79l-115 147h75l80 -94l79 94h76z" />
    <glyph glyph-name="acircumflex.sc" horiz-adv-x="532" 
d="M369 120h-212l-40 -120h-88l186 522h101l187 -522h-95zM346 190l-63 194q-11 33 -17 70h-3q-1 -5 -5 -24t-12 -44l-66 -196h166zM345 606l-79 94l-80 -94h-75l115 147h79l116 -147h-76z" />
    <glyph glyph-name="adieresis.sc" horiz-adv-x="532" 
d="M369 120h-212l-40 -120h-88l186 522h101l187 -522h-95zM346 190l-63 194q-11 33 -17 70h-3q-1 -5 -5 -24t-12 -44l-66 -196h166zM126.5 630q-16.5 16 -16.5 41q0 26 16 42.5t42 16.5t42 -16.5t16 -42.5q0 -25 -16 -41t-42 -16q-25 0 -41.5 16zM322.5 630
q-16.5 16 -16.5 41q0 26 16 42.5t42 16.5t42 -16.5t16 -42.5q0 -25 -16 -41t-42 -16q-25 0 -41.5 16z" />
    <glyph glyph-name="ae.sc" horiz-adv-x="751" 
d="M691 72v-72h-331v117h-192l-68 -117h-95l316 522h365v-72h-237v-147h222v-69h-222v-162h242zM360 187v196q0 40 3 67h-4q-21 -42 -33 -62l-117 -201h151z" />
    <glyph glyph-name="agrave.sc" horiz-adv-x="532" 
d="M369 120h-212l-40 -120h-88l186 522h101l187 -522h-95zM346 190l-63 194q-11 33 -17 70h-3q-1 -5 -5 -24t-12 -44l-66 -196h166zM241 606l-119 166h96l96 -166h-73z" />
    <glyph glyph-name="amacron.sc" horiz-adv-x="532" 
d="M369 120h-212l-40 -120h-88l186 522h101l187 -522h-95zM346 190l-63 194q-11 33 -17 70h-3q-1 -5 -5 -24t-12 -44l-66 -196h166zM117 695h299v-66h-299v66z" />
    <glyph glyph-name="aogonek.sc" horiz-adv-x="532" 
d="M369 120h-212l-40 -120h-88l186 522h101l187 -522h-95zM346 190l-63 194q-11 33 -17 70h-3q-1 -5 -5 -24t-12 -44l-66 -196h166zM334.5 -166.5q-28.5 23.5 -28.5 60.5q0 60 79 113l26 18l70 -4q-95 -55 -95 -107q0 -18 11 -28.5t29 -10.5q16 0 27.5 7.5t25.5 22.5l39 -39
q-21 -28 -46 -42t-63 -14q-46 0 -74.5 23.5z" />
    <glyph glyph-name="aring.sc" horiz-adv-x="532" 
d="M369 120h-212l-40 -120h-88l186 522h101l187 -522h-95zM346 190l-63 194q-11 33 -17 70h-3q-1 -5 -5 -24t-12 -44l-66 -196h166zM183.5 619q-32.5 30 -32.5 74q0 45 32 75t82 30q51 0 83.5 -30t32.5 -75q0 -44 -33 -74t-83 -30q-49 0 -81.5 30zM306.5 653
q16.5 16 16.5 40t-16 40.5t-42 16.5q-25 0 -40.5 -16.5t-15.5 -40.5q0 -23 16 -39.5t40 -16.5q25 0 41.5 16z" />
    <glyph glyph-name="atilde.sc" horiz-adv-x="532" 
d="M369 120h-212l-40 -120h-88l186 522h101l187 -522h-95zM346 190l-63 194q-11 33 -17 70h-3q-1 -5 -5 -24t-12 -44l-66 -196h166zM282 617q-17 11 -37 32q-11 13 -20 19.5t-19 6.5q-32 0 -36 -64h-59q3 73 30.5 102.5t64.5 29.5q26 0 42.5 -11t34.5 -31q13 -14 22 -21
t20 -7q14 0 23 13.5t13 50.5h59q-3 -73 -31 -102t-64 -29q-26 0 -43 11z" />
    <glyph glyph-name="b.sc" horiz-adv-x="522" 
d="M441.5 230q27.5 -32 27.5 -81q0 -72 -53.5 -110.5t-135.5 -38.5h-194v522h176q83 0 133.5 -36t50.5 -97q0 -40 -21.5 -67.5t-59.5 -41.5v-4q49 -14 76.5 -46zM173 452v-151h90q45 0 70 19t25 57q0 37 -25 56t-69 19h-91zM348.5 89.5q29.5 19.5 29.5 62.5q0 83 -107 83
h-98v-165h98q48 0 77.5 19.5z" />
    <glyph glyph-name="c.sc" horiz-adv-x="533" 
d="M187 113q40 -50 105 -50q95 0 129 102l72 -31q-24 -72 -77.5 -108t-126.5 -36q-68 0 -121 32t-83 93.5t-30 145.5t30.5 145.5t84 93.5t119.5 32q70 0 122.5 -34t74.5 -99l-71 -31q-16 45 -48 67.5t-76 22.5q-64 0 -104 -49.5t-40 -147.5t40 -148z" />
    <glyph glyph-name="cacute.sc" horiz-adv-x="533" 
d="M187 113q40 -50 105 -50q95 0 129 102l72 -31q-24 -72 -77.5 -108t-126.5 -36q-68 0 -121 32t-83 93.5t-30 145.5t30.5 145.5t84 93.5t119.5 32q70 0 122.5 -34t74.5 -99l-71 -31q-16 45 -48 67.5t-76 22.5q-64 0 -104 -49.5t-40 -147.5t40 -148zM336 771h96l-119 -166
h-73z" />
    <glyph glyph-name="ccaron.sc" horiz-adv-x="533" 
d="M187 113q40 -50 105 -50q95 0 129 102l72 -31q-24 -72 -77.5 -108t-126.5 -36q-68 0 -121 32t-83 93.5t-30 145.5t30.5 145.5t84 93.5t119.5 32q70 0 122.5 -34t74.5 -99l-71 -31q-16 45 -48 67.5t-76 22.5q-64 0 -104 -49.5t-40 -147.5t40 -148zM443 752l-116 -147h-79
l-115 147h75l80 -94l79 94h76z" />
    <glyph glyph-name="ccedilla.sc" horiz-adv-x="533" 
d="M432.5 39.5q-40.5 -35.5 -96.5 -45.5v-7q56 -41 56 -89q0 -40 -28 -63.5t-75 -23.5q-68 0 -106 53l36 34q14 -15 27.5 -23t30.5 -8q21 0 33.5 12t12.5 31q0 42 -49 80q-64 4 -113.5 37t-77.5 93t-28 141q0 84 30.5 145.5t84 93.5t119.5 32q70 0 122.5 -34t74.5 -99
l-71 -31q-16 45 -48 67.5t-76 22.5q-64 0 -104 -49.5t-40 -147.5t40 -148t105 -50q95 0 129 102l72 -31q-20 -59 -60.5 -94.5z" />
    <glyph glyph-name="ccircumflex.sc" horiz-adv-x="533" 
d="M187 113q40 -50 105 -50q95 0 129 102l72 -31q-24 -72 -77.5 -108t-126.5 -36q-68 0 -121 32t-83 93.5t-30 145.5t30.5 145.5t84 93.5t119.5 32q70 0 122.5 -34t74.5 -99l-71 -31q-16 45 -48 67.5t-76 22.5q-64 0 -104 -49.5t-40 -147.5t40 -148zM367 605l-79 94l-80 -94
h-75l115 147h79l116 -147h-76z" />
    <glyph glyph-name="cdotaccent.sc" horiz-adv-x="533" 
d="M187 113q40 -50 105 -50q95 0 129 102l72 -31q-24 -72 -77.5 -108t-126.5 -36q-68 0 -121 32t-83 93.5t-30 145.5t30.5 145.5t84 93.5t119.5 32q70 0 122.5 -34t74.5 -99l-71 -31q-16 45 -48 67.5t-76 22.5q-64 0 -104 -49.5t-40 -147.5t40 -148zM245.5 633
q-16.5 16 -16.5 41t16.5 41t42.5 16q25 0 41.5 -16t16.5 -41t-16 -41t-42 -16t-42.5 16z" />
    <glyph glyph-name="d.sc" horiz-adv-x="578" 
d="M396 492.5q59 -29.5 92.5 -88.5t33.5 -143t-33.5 -143t-92.5 -88.5t-136 -29.5h-174v522h174q77 0 136 -29.5zM383 120.5q48 47.5 48 140.5t-47.5 140t-130.5 47h-78v-375h78q82 0 130 47.5z" />
    <glyph glyph-name="dcaron.sc" horiz-adv-x="578" 
d="M396 492.5q59 -29.5 92.5 -88.5t33.5 -143t-33.5 -143t-92.5 -88.5t-136 -29.5h-174v522h174q77 0 136 -29.5zM383 120.5q48 47.5 48 140.5t-47.5 140t-130.5 47h-78v-375h78q82 0 130 47.5zM430 752l-116 -147h-79l-115 147h75l80 -94l79 94h76z" />
    <glyph glyph-name="dcroat.sc" horiz-adv-x="595" 
d="M413.5 492.5q59.5 -29.5 93 -88.5t33.5 -143t-33.5 -143t-93 -88.5t-136.5 -29.5h-174v238h-74v58h74v226h174q77 0 136.5 -29.5zM400 120.5q48 47.5 48 140.5t-47.5 140t-130.5 47h-78v-152h121v-58h-121v-165h78q82 0 130 47.5z" />
    <glyph glyph-name="uni01F3.sc" horiz-adv-x="1039" 
d="M396 492.5q59 -29.5 92.5 -88.5t33.5 -143t-33.5 -143t-92.5 -88.5t-136 -29.5h-174v522h174q77 0 136 -29.5zM383 120.5q48 47.5 48 140.5t-47.5 140t-130.5 47h-78v-375h78q82 0 130 47.5zM991 71v-71h-376v77l276 373h-264v72h363v-77l-278 -374h279z" />
    <glyph glyph-name="uni01C6.sc" horiz-adv-x="1039" 
d="M396 492.5q59 -29.5 92.5 -88.5t33.5 -143t-33.5 -143t-92.5 -88.5t-136 -29.5h-174v522h174q77 0 136 -29.5zM383 120.5q48 47.5 48 140.5t-47.5 140t-130.5 47h-78v-375h78q82 0 130 47.5zM991 71v-71h-376v77l276 373h-264v72h363v-77l-278 -374h279zM961 752
l-116 -147h-79l-115 147h75l80 -94l79 94h76z" />
    <glyph glyph-name="e.sc" horiz-adv-x="481" 
d="M422 72v-72h-336v522h331v-72h-242v-147h226v-69h-226v-162h247z" />
    <glyph glyph-name="eacute.sc" horiz-adv-x="481" 
d="M422 72v-72h-336v522h331v-72h-242v-147h226v-69h-226v-162h247zM300 771h96l-119 -166h-73z" />
    <glyph glyph-name="ebreve.sc" horiz-adv-x="481" 
d="M422 72v-72h-336v522h331v-72h-242v-147h226v-69h-226v-162h247zM151.5 638.5q-39.5 37.5 -45.5 107.5h61q13 -84 86 -84q32 0 55 19.5t30 64.5h61q-6 -71 -45 -108t-101 -37t-101.5 37.5z" />
    <glyph glyph-name="ecaron.sc" horiz-adv-x="481" 
d="M422 72v-72h-336v522h331v-72h-242v-147h226v-69h-226v-162h247zM408 752l-116 -147h-79l-115 147h75l80 -94l79 94h76z" />
    <glyph glyph-name="ecircumflex.sc" horiz-adv-x="481" 
d="M422 72v-72h-336v522h331v-72h-242v-147h226v-69h-226v-162h247zM332 605l-79 94l-80 -94h-75l115 147h79l116 -147h-76z" />
    <glyph glyph-name="edieresis.sc" horiz-adv-x="481" 
d="M422 72v-72h-336v522h331v-72h-242v-147h226v-69h-226v-162h247zM113.5 629q-16.5 16 -16.5 41q0 26 16 42.5t42 16.5t42 -16.5t16 -42.5q0 -25 -16 -41t-42 -16q-25 0 -41.5 16zM309.5 629q-16.5 16 -16.5 41q0 26 16 42.5t42 16.5t42 -16.5t16 -42.5q0 -25 -16 -41
t-42 -16q-25 0 -41.5 16z" />
    <glyph glyph-name="edotaccent.sc" horiz-adv-x="481" 
d="M422 72v-72h-336v522h331v-72h-242v-147h226v-69h-226v-162h247zM210.5 633q-16.5 16 -16.5 41t16.5 41t42.5 16q25 0 41.5 -16t16.5 -41t-16 -41t-42 -16t-42.5 16z" />
    <glyph glyph-name="egrave.sc" horiz-adv-x="481" 
d="M422 72v-72h-336v522h331v-72h-242v-147h226v-69h-226v-162h247zM227 605l-119 166h96l96 -166h-73z" />
    <glyph glyph-name="emacron.sc" horiz-adv-x="481" 
d="M422 72v-72h-336v522h331v-72h-242v-147h226v-69h-226v-162h247zM103 694h299v-66h-299v66z" />
    <glyph glyph-name="eng.sc" horiz-adv-x="583" 
d="M497 522v-530q0 -67 -38 -101.5t-101 -34.5q-35 0 -64 7v63q30 -7 52 -7q64 0 67 64l-210 365q-18 33 -32 72h-4q3 -36 3 -78v-342h-84v522h106l187 -334q3 -5 15.5 -27t17.5 -38h4l-1 21q-2 32 -2 49v329h84z" />
    <glyph glyph-name="eogonek.sc" horiz-adv-x="481" 
d="M436 -133q-41 -57 -113 -57q-50 0 -79 24t-29 65q0 54 63 96v5h-192v522h331v-72h-242v-147h226v-69h-226v-162h247v-72h-69q-29 -21 -43 -41t-14 -43q0 -18 11.5 -29.5t31.5 -11.5q16 0 29.5 8t27.5 23z" />
    <glyph glyph-name="eth.sc" horiz-adv-x="595" 
d="M413.5 492.5q59.5 -29.5 93 -88.5t33.5 -143t-33.5 -143t-93 -88.5t-136.5 -29.5h-174v238h-74v58h74v226h174q77 0 136.5 -29.5zM400 120.5q48 47.5 48 140.5t-47.5 140t-130.5 47h-78v-152h121v-58h-121v-165h78q82 0 130 47.5z" />
    <glyph glyph-name="uni1EBD.sc" horiz-adv-x="481" 
d="M422 72v-72h-336v522h331v-72h-242v-147h226v-69h-226v-162h247zM269 616q-17 11 -37 32q-11 13 -20 19.5t-19 6.5q-32 0 -36 -64h-59q3 73 30.5 102.5t64.5 29.5q26 0 42.5 -11t34.5 -31q13 -14 22 -21t20 -7q14 0 23 13.5t13 50.5h59q-3 -73 -31 -102t-64 -29
q-26 0 -43 11z" />
    <glyph glyph-name="f.sc" horiz-adv-x="460" 
d="M175 449v-156h217v-71h-217v-222h-89v522h325v-73h-236z" />
    <glyph glyph-name="g.sc" horiz-adv-x="566" 
d="M502 270v-211q-38 -32 -88 -50.5t-108 -18.5q-72 0 -128.5 30.5t-89 91.5t-32.5 149q0 84 33 145.5t89 93.5t124 32q67 0 118.5 -28.5t79.5 -82.5l-68 -39q-43 77 -128 77q-71 0 -114.5 -49.5t-43.5 -148.5q0 -100 42 -149.5t117 -49.5q70 0 114 35v104h-125v69h208z" />
    <glyph glyph-name="gbreve.sc" horiz-adv-x="566" 
d="M502 270v-211q-38 -32 -88 -50.5t-108 -18.5q-72 0 -128.5 30.5t-89 91.5t-32.5 149q0 84 33 145.5t89 93.5t124 32q67 0 118.5 -28.5t79.5 -82.5l-68 -39q-43 77 -128 77q-71 0 -114.5 -49.5t-43.5 -148.5q0 -100 42 -149.5t117 -49.5q70 0 114 35v104h-125v69h208z
M197.5 639.5q-39.5 37.5 -45.5 107.5h61q13 -84 86 -84q32 0 55 19.5t30 64.5h61q-6 -71 -45 -108t-101 -37t-101.5 37.5z" />
    <glyph glyph-name="gcircumflex.sc" horiz-adv-x="566" 
d="M502 270v-211q-38 -32 -88 -50.5t-108 -18.5q-72 0 -128.5 30.5t-89 91.5t-32.5 149q0 84 33 145.5t89 93.5t124 32q67 0 118.5 -28.5t79.5 -82.5l-68 -39q-43 77 -128 77q-71 0 -114.5 -49.5t-43.5 -148.5q0 -100 42 -149.5t117 -49.5q70 0 114 35v104h-125v69h208z
M378 606l-79 94l-80 -94h-75l115 147h79l116 -147h-76z" />
    <glyph glyph-name="uni0123.sc" horiz-adv-x="566" 
d="M502 270v-211q-38 -32 -88 -50.5t-108 -18.5q-72 0 -128.5 30.5t-89 91.5t-32.5 149q0 84 33 145.5t89 93.5t124 32q67 0 118.5 -28.5t79.5 -82.5l-68 -39q-43 77 -128 77q-71 0 -114.5 -49.5t-43.5 -148.5q0 -100 42 -149.5t117 -49.5q70 0 114 35v104h-125v69h208z
M345 -63.5q15 -17.5 15 -48.5q0 -33 -18.5 -68.5t-46.5 -64.5l-32 23q18 20 31 41.5t16 36.5q-2 -1 -8 -1q-23 0 -37 13t-14 35t14.5 36.5t37.5 14.5q27 0 42 -17.5z" />
    <glyph glyph-name="gdotaccent.sc" horiz-adv-x="566" 
d="M502 270v-211q-38 -32 -88 -50.5t-108 -18.5q-72 0 -128.5 30.5t-89 91.5t-32.5 149q0 84 33 145.5t89 93.5t124 32q67 0 118.5 -28.5t79.5 -82.5l-68 -39q-43 77 -128 77q-71 0 -114.5 -49.5t-43.5 -148.5q0 -100 42 -149.5t117 -49.5q70 0 114 35v104h-125v69h208z
M256.5 634q-16.5 16 -16.5 41t16.5 41t42.5 16q25 0 41.5 -16t16.5 -41t-16 -41t-42 -16t-42.5 16z" />
    <glyph glyph-name="germandbls.sc" horiz-adv-x="989" 
d="M160.5 78q41.5 -18 83.5 -18q52 0 82 18.5t30 53.5q0 32 -24.5 51t-75.5 37l-66 25q-125 45 -125 143q0 63 49 103.5t129 40.5q112 0 187 -66l-44 -58q-28 25 -64 39.5t-74 14.5q-44 0 -69.5 -18.5t-25.5 -48.5t22.5 -47.5t60.5 -31.5l69 -26q64 -24 102 -57.5t38 -92.5
q0 -71 -55.5 -110.5t-144.5 -39.5q-61 0 -112.5 21t-90.5 59l46 57q31 -31 72.5 -49zM654.5 78q41.5 -18 83.5 -18q52 0 82 18.5t30 53.5q0 32 -24.5 51t-75.5 37l-66 25q-125 45 -125 143q0 63 49 103.5t129 40.5q112 0 187 -66l-44 -58q-28 25 -64 39.5t-74 14.5
q-44 0 -69.5 -18.5t-25.5 -48.5t22.5 -47.5t60.5 -31.5l69 -26q64 -24 102 -57.5t38 -92.5q0 -71 -55.5 -110.5t-144.5 -39.5q-61 0 -112.5 21t-90.5 59l46 57q31 -31 72.5 -49z" />
    <glyph glyph-name="h.sc" horiz-adv-x="578" 
d="M493 522v-522h-89v233h-229v-233h-89v522h89v-216h229v216h89z" />
    <glyph glyph-name="hbar.sc" horiz-adv-x="604" 
d="M572 379h-67v-379h-89v233h-229v-233h-89v379h-66v58h66v85h89v-85h229v85h89v-85h67v-58zM416 379h-229v-73h229v73z" />
    <glyph glyph-name="hcircumflex.sc" horiz-adv-x="578" 
d="M493 522v-522h-89v233h-229v-233h-89v522h89v-216h229v216h89zM369 605l-79 94l-80 -94h-75l115 147h79l116 -147h-76z" />
    <glyph glyph-name="i.sc" horiz-adv-x="325" 
d="M207 454v-386h63v-68h-215v68h63v386h-63v68h215v-68h-63z" />
    <glyph glyph-name="iacute.sc" horiz-adv-x="325" 
d="M207 454v-386h63v-68h-215v68h63v386h-63v68h215v-68h-63zM210 771h96l-119 -166h-73z" />
    <glyph glyph-name="ibreve.sc" horiz-adv-x="325" 
d="M70 637.5q-33 36.5 -36 108.5h61q7 -84 67 -84q61 0 68 84h61q-3 -72 -36 -108.5t-93 -36.5q-59 0 -92 36.5zM270 454h-63v-386h63v-68h-215v68h63v386h-63v68h215v-68z" />
    <glyph glyph-name="uni01D0.sc" horiz-adv-x="325" 
d="M123 605l-94 148h71l63 -92l62 92h71l-94 -148h-79zM270 454h-63v-386h63v-68h-215v68h63v386h-63v68h215v-68z" />
    <glyph glyph-name="icircumflex.sc" horiz-adv-x="325" 
d="M100 605h-71l94 147h79l94 -147h-71l-62 92zM270 454h-63v-386h63v-68h-215v68h63v386h-63v68h215v-68z" />
    <glyph glyph-name="idieresis.sc" horiz-adv-x="325" 
d="M118.5 629q-16.5 -16 -41.5 -16q-26 0 -42.5 16t-16.5 41q0 26 16.5 42.5t42.5 16.5t42 -16.5t16 -42.5q0 -25 -16.5 -41zM291 712.5q16 -16.5 16 -42.5q0 -25 -16 -41t-42 -16q-25 0 -41.5 16t-16.5 41q0 26 16 42.5t42 16.5t42 -16.5zM270 454h-63v-386h63v-68h-215v68
h63v386h-63v68h215v-68z" />
    <glyph glyph-name="i.sc.loclTRK" horiz-adv-x="325" 
d="M207 454v-386h63v-68h-215v68h63v386h-63v68h215v-68h-63zM120.5 633q-16.5 16 -16.5 41t16.5 41t42.5 16q25 0 41.5 -16t16.5 -41t-16 -41t-42 -16t-42.5 16z" />
    <glyph glyph-name="dotlessi.sc" horiz-adv-x="325" 
d="M207 454v-386h63v-68h-215v68h63v386h-63v68h215v-68h-63z" />
    <glyph glyph-name="igrave.sc" horiz-adv-x="325" 
d="M207 454v-386h63v-68h-215v68h63v386h-63v68h215v-68h-63zM137 605l-119 166h96l96 -166h-73z" />
    <glyph glyph-name="imacron.sc" horiz-adv-x="325" 
d="M278 694v-66h-231v66h231zM270 454h-63v-386h63v-68h-215v68h63v386h-63v68h215v-68z" />
    <glyph glyph-name="iogonek.sc" horiz-adv-x="325" 
d="M281 -133q-41 -57 -113 -57q-50 0 -79 24t-29 65q0 54 63 96v5h-68v68h63v386h-63v68h215v-68h-63v-386h63v-68h-72q-29 -21 -43 -41t-14 -43q0 -18 11.5 -29.5t31.5 -11.5q16 0 29.5 8t27.5 23z" />
    <glyph glyph-name="itilde.sc" horiz-adv-x="325" 
d="M79 610h-57q1 73 26.5 102.5t60.5 29.5q23 0 39 -11.5t32 -31.5q13 -15 19.5 -21t15.5 -6q13 0 20.5 13.5t10.5 50.5h57q-1 -73 -27 -102t-60 -29q-24 0 -40 11.5t-34 32.5q-10 12 -17 18.5t-15 6.5q-30 0 -31 -64zM270 454h-63v-386h63v-68h-215v68h63v386h-63v68h215
v-68z" />
    <glyph glyph-name="j.sc" horiz-adv-x="313" 
d="M12 -83v73q24 -8 56 -8q71 0 71 70v470h89v-480q0 -65 -38.5 -99t-102.5 -34q-43 0 -75 8z" />
    <glyph glyph-name="uni006A0301.sc" horiz-adv-x="313" 
d="M12 -83v73q24 -8 56 -8q71 0 71 70v470h89v-480q0 -65 -38.5 -99t-102.5 -34q-43 0 -75 8zM230 771h96l-119 -166h-73z" />
    <glyph glyph-name="jcircumflex.sc" horiz-adv-x="313" 
d="M316 605h-71l-62 92l-63 -92h-71l94 147h79zM139 522h89v-480q0 -65 -38.5 -99t-102.5 -34q-43 0 -75 8v73q24 -8 56 -8q71 0 71 70v470z" />
    <glyph glyph-name="uni0237.sc" horiz-adv-x="313" 
d="M12 -83v73q24 -8 56 -8q71 0 71 70v470h89v-480q0 -65 -38.5 -99t-102.5 -34q-43 0 -75 8z" />
    <glyph glyph-name="k.sc" horiz-adv-x="519" 
d="M198 238h-24v-238h-88v522h88v-217h25l179 217h100l-210 -244l237 -278h-109z" />
    <glyph glyph-name="uni0137.sc" horiz-adv-x="519" 
d="M198 238h-24v-238h-88v522h88v-217h25l179 217h100l-210 -244l237 -278h-109zM318 -64.5q15 -17.5 15 -48.5q0 -33 -18.5 -68.5t-46.5 -64.5l-32 23q18 20 31 41.5t16 36.5q-2 -1 -8 -1q-23 0 -37 13t-14 35t14.5 36.5t37.5 14.5q27 0 42 -17.5z" />
    <glyph glyph-name="l.sc" horiz-adv-x="448" 
d="M409 73v-73h-323v522h89v-449h234z" />
    <glyph glyph-name="l_periodcentered.latnCAT.sc" horiz-adv-x="459" 
d="M175 73h234v-73h-323v522h89v-449zM318 254.5q-15 15.5 -15 39.5q0 25 15 40t39 15q25 0 40 -15t15 -40q0 -24 -15 -39.5t-40 -15.5q-24 0 -39 15.5z" />
    <glyph glyph-name="lacute.sc" horiz-adv-x="448" 
d="M409 73v-73h-323v522h89v-449h234zM178 771h96l-119 -166h-73z" />
    <glyph glyph-name="lcaron.sc" horiz-adv-x="453" 
d="M409 73v-73h-323v522h89v-449h234zM336 325h-57l15 197h79z" />
    <glyph glyph-name="uni013C.sc" horiz-adv-x="448" 
d="M409 73v-73h-323v522h89v-449h234zM286 -64.5q15 -17.5 15 -48.5q0 -33 -18.5 -68.5t-46.5 -64.5l-32 23q18 20 31 41.5t16 36.5q-2 -1 -8 -1q-23 0 -37 13t-14 35t14.5 36.5t37.5 14.5q27 0 42 -17.5z" />
    <glyph glyph-name="ldot.sc" horiz-adv-x="459" 
d="M175 73h234v-73h-323v522h89v-449zM318 254.5q-15 15.5 -15 39.5q0 25 15 40t39 15q25 0 40 -15t15 -40q0 -24 -15 -39.5t-40 -15.5q-24 0 -39 15.5z" />
    <glyph glyph-name="uni01C9.sc" horiz-adv-x="761" 
d="M409 73v-73h-323v522h89v-449h234zM460 -83v73q24 -8 56 -8q71 0 71 70v470h89v-480q0 -65 -38.5 -99t-102.5 -34q-43 0 -75 8z" />
    <glyph glyph-name="lslash.sc" horiz-adv-x="477" 
d="M439 73v-73h-324v212l-70 -30v63l70 30v247h90v-214l117 49v-62l-117 -49v-173h234z" />
    <glyph glyph-name="m.sc" horiz-adv-x="723" 
d="M86 522h134l124 -377q11 -35 15 -65h4q6 42 13 64l129 378h132v-522h-86v361q0 40 2 90h-4q-13 -54 -24 -87l-126 -364h-80l-125 365q-7 20 -16 61l-6 25h-4q2 -38 2 -90v-361h-84v522z" />
    <glyph glyph-name="n.sc" horiz-adv-x="584" 
d="M86 522h106l188 -347q18 -32 33 -70h4l-1 27q-2 34 -2 47v343h84v-522h-105l-189 347q-21 40 -33 72h-4q3 -34 3 -77v-342h-84v522z" />
    <glyph glyph-name="nacute.sc" horiz-adv-x="584" 
d="M86 522h106l188 -347q18 -32 33 -70h4l-1 27q-2 34 -2 47v343h84v-522h-105l-189 347q-21 40 -33 72h-4q3 -34 3 -77v-342h-84v522zM350 772h96l-119 -166h-73z" />
    <glyph glyph-name="ncaron.sc" horiz-adv-x="584" 
d="M86 522h106l188 -347q18 -32 33 -70h4l-1 27q-2 34 -2 47v343h84v-522h-105l-189 347q-21 40 -33 72h-4q3 -34 3 -77v-342h-84v522zM457 753l-116 -147h-79l-115 147h75l80 -94l79 94h76z" />
    <glyph glyph-name="uni0146.sc" horiz-adv-x="584" 
d="M86 522h106l188 -347q18 -32 33 -70h4l-1 27q-2 34 -2 47v343h84v-522h-105l-189 347q-21 40 -33 72h-4q3 -34 3 -77v-342h-84v522zM337 -64.5q15 -17.5 15 -48.5q0 -33 -18.5 -68.5t-46.5 -64.5l-32 23q18 20 31 41.5t16 36.5q-2 -1 -8 -1q-23 0 -37 13t-14 35
t14.5 36.5t37.5 14.5q27 0 42 -17.5z" />
    <glyph glyph-name="ntilde.sc" horiz-adv-x="584" 
d="M86 522h106l188 -347q18 -32 33 -70h4l-1 27q-2 34 -2 47v343h84v-522h-105l-189 347q-21 40 -33 72h-4q3 -34 3 -77v-342h-84v522zM318 617q-17 11 -37 32q-11 13 -20 19.5t-19 6.5q-32 0 -36 -64h-59q3 73 30.5 102.5t64.5 29.5q26 0 42.5 -11t34.5 -31q13 -14 22 -21
t20 -7q14 0 23 13.5t13 50.5h59q-3 -73 -31 -102t-64 -29q-26 0 -43 11z" />
    <glyph glyph-name="uni01CC.sc" horiz-adv-x="897" 
d="M86 522h106l188 -347q18 -32 33 -70h4l-1 27q-2 34 -2 47v343h84v-522h-105l-189 347q-21 40 -33 72h-4q3 -34 3 -77v-342h-84v522zM596 -83v73q24 -8 56 -8q71 0 71 70v470h89v-480q0 -65 -38.5 -99t-102.5 -34q-43 0 -75 8z" />
    <glyph glyph-name="o.sc" horiz-adv-x="597" 
d="M173 22q-55 32 -86.5 93t-31.5 146q0 84 31.5 145.5t86.5 93.5t125 32t125.5 -32t87 -93.5t31.5 -145.5t-31.5 -145.5t-87 -93.5t-125.5 -32t-125 32zM407.5 114q42.5 50 42.5 147q0 98 -42.5 147t-109.5 49t-109 -49t-42 -147q0 -97 42.5 -147t108.5 -50q67 0 109.5 50z
" />
    <glyph glyph-name="oacute.sc" horiz-adv-x="597" 
d="M173 22q-55 32 -86.5 93t-31.5 146q0 84 31.5 145.5t86.5 93.5t125 32t125.5 -32t87 -93.5t31.5 -145.5t-31.5 -145.5t-87 -93.5t-125.5 -32t-125 32zM407.5 114q42.5 50 42.5 147q0 98 -42.5 147t-109.5 49t-109 -49t-42 -147q0 -97 42.5 -147t108.5 -50q67 0 109.5 50z
M346 771h96l-119 -166h-73z" />
    <glyph glyph-name="obreve.sc" horiz-adv-x="597" 
d="M173 22q-55 32 -86.5 93t-31.5 146q0 84 31.5 145.5t86.5 93.5t125 32t125.5 -32t87 -93.5t31.5 -145.5t-31.5 -145.5t-87 -93.5t-125.5 -32t-125 32zM407.5 114q42.5 50 42.5 147q0 98 -42.5 147t-109.5 49t-109 -49t-42 -147q0 -97 42.5 -147t108.5 -50q67 0 109.5 50z
M196.5 638.5q-39.5 37.5 -45.5 107.5h61q13 -84 86 -84q32 0 55 19.5t30 64.5h61q-6 -71 -45 -108t-101 -37t-101.5 37.5z" />
    <glyph glyph-name="uni01D2.sc" horiz-adv-x="597" 
d="M173 22q-55 32 -86.5 93t-31.5 146q0 84 31.5 145.5t86.5 93.5t125 32t125.5 -32t87 -93.5t31.5 -145.5t-31.5 -145.5t-87 -93.5t-125.5 -32t-125 32zM407.5 114q42.5 50 42.5 147q0 98 -42.5 147t-109.5 49t-109 -49t-42 -147q0 -97 42.5 -147t108.5 -50q67 0 109.5 50z
M453 752l-116 -147h-79l-115 147h75l80 -94l79 94h76z" />
    <glyph glyph-name="ocircumflex.sc" horiz-adv-x="597" 
d="M173 22q-55 32 -86.5 93t-31.5 146q0 84 31.5 145.5t86.5 93.5t125 32t125.5 -32t87 -93.5t31.5 -145.5t-31.5 -145.5t-87 -93.5t-125.5 -32t-125 32zM407.5 114q42.5 50 42.5 147q0 98 -42.5 147t-109.5 49t-109 -49t-42 -147q0 -97 42.5 -147t108.5 -50q67 0 109.5 50z
M377 605l-79 94l-80 -94h-75l115 147h79l116 -147h-76z" />
    <glyph glyph-name="odieresis.sc" horiz-adv-x="597" 
d="M173 22q-55 32 -86.5 93t-31.5 146q0 84 31.5 145.5t86.5 93.5t125 32t125.5 -32t87 -93.5t31.5 -145.5t-31.5 -145.5t-87 -93.5t-125.5 -32t-125 32zM407.5 114q42.5 50 42.5 147q0 98 -42.5 147t-109.5 49t-109 -49t-42 -147q0 -97 42.5 -147t108.5 -50q67 0 109.5 50z
M158.5 629q-16.5 16 -16.5 41q0 26 16 42.5t42 16.5t42 -16.5t16 -42.5q0 -25 -16 -41t-42 -16q-25 0 -41.5 16zM354.5 629q-16.5 16 -16.5 41q0 26 16 42.5t42 16.5t42 -16.5t16 -42.5q0 -25 -16 -41t-42 -16q-25 0 -41.5 16z" />
    <glyph glyph-name="oe.sc" horiz-adv-x="826" 
d="M766 73v-73h-327v72h-3q-50 -82 -156 -82q-63 0 -114 31t-80.5 92.5t-29.5 147.5t29.5 147.5t80.5 92.5t114 31q106 0 156 -82h3v72h322v-73h-236v-145h222v-70h-222v-161h241zM398 112.5q40 50.5 40 148.5t-39.5 148t-105.5 50t-105.5 -50t-39.5 -148t39.5 -148.5
t105.5 -50.5q65 0 105 50.5z" />
    <glyph glyph-name="ograve.sc" horiz-adv-x="597" 
d="M173 22q-55 32 -86.5 93t-31.5 146q0 84 31.5 145.5t86.5 93.5t125 32t125.5 -32t87 -93.5t31.5 -145.5t-31.5 -145.5t-87 -93.5t-125.5 -32t-125 32zM407.5 114q42.5 50 42.5 147q0 98 -42.5 147t-109.5 49t-109 -49t-42 -147q0 -97 42.5 -147t108.5 -50q67 0 109.5 50z
M273 605l-119 166h96l96 -166h-73z" />
    <glyph glyph-name="ohungarumlaut.sc" horiz-adv-x="597" 
d="M173 22q-55 32 -86.5 93t-31.5 146q0 84 31.5 145.5t86.5 93.5t125 32t125.5 -32t87 -93.5t31.5 -145.5t-31.5 -145.5t-87 -93.5t-125.5 -32t-125 32zM407.5 114q42.5 50 42.5 147q0 98 -42.5 147t-109.5 49t-109 -49t-42 -147q0 -97 42.5 -147t108.5 -50q67 0 109.5 50z
M261 752h89l-105 -147h-76zM432 752h96l-116 -147h-73z" />
    <glyph glyph-name="omacron.sc" horiz-adv-x="597" 
d="M173 22q-55 32 -86.5 93t-31.5 146q0 84 31.5 145.5t86.5 93.5t125 32t125.5 -32t87 -93.5t31.5 -145.5t-31.5 -145.5t-87 -93.5t-125.5 -32t-125 32zM407.5 114q42.5 50 42.5 147q0 98 -42.5 147t-109.5 49t-109 -49t-42 -147q0 -97 42.5 -147t108.5 -50q67 0 109.5 50z
M149 694h299v-66h-299v66z" />
    <glyph glyph-name="oslash.sc" horiz-adv-x="599" 
d="M544 261q0 -84 -31.5 -145.5t-87 -93.5t-125.5 -32q-82 0 -141 42l-44 -55l-47 36l47 60q-58 74 -58 188q0 84 31.5 145.5t86.5 93.5t125 32q82 0 143 -43l38 49l48 -35l-43 -56q58 -71 58 -186zM191 408q-42 -49 -42 -147q0 -70 24 -118l220 282q-38 32 -93 32
q-67 0 -109 -49zM409.5 114q42.5 50 42.5 147q0 68 -22 115l-220 -281q37 -31 90 -31q67 0 109.5 50z" />
    <glyph glyph-name="otilde.sc" horiz-adv-x="597" 
d="M173 22q-55 32 -86.5 93t-31.5 146q0 84 31.5 145.5t86.5 93.5t125 32t125.5 -32t87 -93.5t31.5 -145.5t-31.5 -145.5t-87 -93.5t-125.5 -32t-125 32zM407.5 114q42.5 50 42.5 147q0 98 -42.5 147t-109.5 49t-109 -49t-42 -147q0 -97 42.5 -147t108.5 -50q67 0 109.5 50z
M314 616q-17 11 -37 32q-11 13 -20 19.5t-19 6.5q-32 0 -36 -64h-59q3 73 30.5 102.5t64.5 29.5q26 0 42.5 -11t34.5 -31q13 -14 22 -21t20 -7q14 0 23 13.5t13 50.5h59q-3 -73 -31 -102t-64 -29q-26 0 -43 11z" />
    <glyph glyph-name="p.sc" horiz-adv-x="505" 
d="M408.5 480.5q53.5 -41.5 53.5 -117.5q0 -77 -53.5 -119.5t-140.5 -42.5h-93v-201h-89v522h182q87 0 140.5 -41.5zM371 361q0 89 -106 89h-90v-180h90q106 0 106 91z" />
    <glyph glyph-name="q.sc" horiz-adv-x="597" 
d="M443 -86l-70 86q-34 -10 -75 -10q-70 0 -125 32t-86.5 93t-31.5 146q0 84 31.5 145.5t86.5 93.5t125 32t125.5 -32t87 -93.5t31.5 -145.5q0 -74 -24.5 -130t-68.5 -91l102 -126h-108zM189.5 114q42.5 -50 108.5 -50q67 0 109.5 50t42.5 147t-42.5 146.5t-109.5 49.5
q-66 0 -108.5 -49.5t-42.5 -146.5t42.5 -147z" />
    <glyph glyph-name="r.sc" horiz-adv-x="523" 
d="M252 211h-77v-211h-89v522h178q83 0 136 -38.5t53 -111.5q0 -56 -31 -92.5t-84 -51.5l152 -228h-107zM175 281h87q47 0 73.5 21t26.5 63t-26.5 63t-73.5 21h-87v-168z" />
    <glyph glyph-name="racute.sc" horiz-adv-x="523" 
d="M252 211h-77v-211h-89v522h178q83 0 136 -38.5t53 -111.5q0 -56 -31 -92.5t-84 -51.5l152 -228h-107zM175 281h87q47 0 73.5 21t26.5 63t-26.5 63t-73.5 21h-87v-168zM300 772h96l-119 -166h-73z" />
    <glyph glyph-name="rcaron.sc" horiz-adv-x="523" 
d="M252 211h-77v-211h-89v522h178q83 0 136 -38.5t53 -111.5q0 -56 -31 -92.5t-84 -51.5l152 -228h-107zM175 281h87q47 0 73.5 21t26.5 63t-26.5 63t-73.5 21h-87v-168zM407 753l-116 -147h-79l-115 147h75l80 -94l79 94h76z" />
    <glyph glyph-name="uni0157.sc" horiz-adv-x="523" 
d="M252 211h-77v-211h-89v522h178q83 0 136 -38.5t53 -111.5q0 -56 -31 -92.5t-84 -51.5l152 -228h-107zM175 281h87q47 0 73.5 21t26.5 63t-26.5 63t-73.5 21h-87v-168zM310 -64.5q15 -17.5 15 -48.5q0 -33 -18.5 -68.5t-46.5 -64.5l-32 23q18 20 31 41.5t16 36.5
q-2 -1 -8 -1q-23 0 -37 13t-14 35t14.5 36.5t37.5 14.5q27 0 42 -17.5z" />
    <glyph glyph-name="s.sc" horiz-adv-x="494" 
d="M160.5 78q41.5 -18 83.5 -18q52 0 82 18.5t30 53.5q0 32 -24.5 51t-75.5 37l-66 25q-125 45 -125 143q0 63 49 103.5t129 40.5q112 0 187 -66l-44 -58q-28 25 -64 39.5t-74 14.5q-44 0 -69.5 -18.5t-25.5 -48.5t22.5 -47.5t60.5 -31.5l69 -26q64 -24 102 -57.5t38 -92.5
q0 -71 -55.5 -110.5t-144.5 -39.5q-61 0 -112.5 21t-90.5 59l46 57q31 -31 72.5 -49z" />
    <glyph glyph-name="sacute.sc" horiz-adv-x="494" 
d="M160.5 78q41.5 -18 83.5 -18q52 0 82 18.5t30 53.5q0 32 -24.5 51t-75.5 37l-66 25q-125 45 -125 143q0 63 49 103.5t129 40.5q112 0 187 -66l-44 -58q-28 25 -64 39.5t-74 14.5q-44 0 -69.5 -18.5t-25.5 -48.5t22.5 -47.5t60.5 -31.5l69 -26q64 -24 102 -57.5t38 -92.5
q0 -71 -55.5 -110.5t-144.5 -39.5q-61 0 -112.5 21t-90.5 59l46 57q31 -31 72.5 -49zM294 771h96l-119 -166h-73z" />
    <glyph glyph-name="scaron.sc" horiz-adv-x="494" 
d="M160.5 78q41.5 -18 83.5 -18q52 0 82 18.5t30 53.5q0 32 -24.5 51t-75.5 37l-66 25q-125 45 -125 143q0 63 49 103.5t129 40.5q112 0 187 -66l-44 -58q-28 25 -64 39.5t-74 14.5q-44 0 -69.5 -18.5t-25.5 -48.5t22.5 -47.5t60.5 -31.5l69 -26q64 -24 102 -57.5t38 -92.5
q0 -71 -55.5 -110.5t-144.5 -39.5q-61 0 -112.5 21t-90.5 59l46 57q31 -31 72.5 -49zM402 752l-116 -147h-79l-115 147h75l80 -94l79 94h76z" />
    <glyph glyph-name="scedilla.sc" horiz-adv-x="494" 
d="M406 44q-39 -37 -104 -49v-8q56 -41 56 -89q0 -40 -28 -63.5t-75 -23.5q-68 0 -106 53l36 34q14 -15 27.5 -23t30.5 -8q21 0 33.5 12t12.5 31q0 41 -48 80q-59 1 -110 22t-89 58l46 57q31 -31 72.5 -49t83.5 -18q52 0 82 18.5t30 53.5q0 32 -24.5 51t-75.5 37l-66 25
q-125 45 -125 143q0 63 49 103.5t129 40.5q112 0 187 -66l-44 -58q-28 25 -64 39.5t-74 14.5q-44 0 -69.5 -18.5t-25.5 -48.5t22.5 -47.5t60.5 -31.5l69 -26q64 -24 102 -57.5t38 -92.5t-39 -96z" />
    <glyph glyph-name="uni0259.sc" horiz-adv-x="573" 
d="M452 461q65 -71 65 -198q0 -85 -29 -146t-82.5 -93.5t-124.5 -32.5q-108 0 -169 68.5t-61 188.5q0 23 2 34h374q-4 89 -46 133t-111 44q-85 0 -139 -71l-59 42q35 51 87 76.5t113 25.5q115 0 180 -71zM381.5 100.5q37.5 38.5 44.5 112.5h-289q4 -72 41.5 -111.5
t102.5 -39.5q63 0 100.5 38.5z" />
    <glyph glyph-name="scircumflex.sc" horiz-adv-x="494" 
d="M160.5 78q41.5 -18 83.5 -18q52 0 82 18.5t30 53.5q0 32 -24.5 51t-75.5 37l-66 25q-125 45 -125 143q0 63 49 103.5t129 40.5q112 0 187 -66l-44 -58q-28 25 -64 39.5t-74 14.5q-44 0 -69.5 -18.5t-25.5 -48.5t22.5 -47.5t60.5 -31.5l69 -26q64 -24 102 -57.5t38 -92.5
q0 -71 -55.5 -110.5t-144.5 -39.5q-61 0 -112.5 21t-90.5 59l46 57q31 -31 72.5 -49zM326 605l-79 94l-80 -94h-75l115 147h79l116 -147h-76z" />
    <glyph glyph-name="uni0219.sc" horiz-adv-x="494" 
d="M160.5 78q41.5 -18 83.5 -18q52 0 82 18.5t30 53.5q0 32 -24.5 51t-75.5 37l-66 25q-125 45 -125 143q0 63 49 103.5t129 40.5q112 0 187 -66l-44 -58q-28 25 -64 39.5t-74 14.5q-44 0 -69.5 -18.5t-25.5 -48.5t22.5 -47.5t60.5 -31.5l69 -26q64 -24 102 -57.5t38 -92.5
q0 -71 -55.5 -110.5t-144.5 -39.5q-61 0 -112.5 21t-90.5 59l46 57q31 -31 72.5 -49zM294 -64.5q15 -17.5 15 -48.5q0 -33 -18.5 -68.5t-46.5 -64.5l-32 23q18 20 31 41.5t16 36.5q-2 -1 -8 -1q-23 0 -37 13t-14 35t14.5 36.5t37.5 14.5q27 0 42 -17.5z" />
    <glyph glyph-name="t.sc" horiz-adv-x="477" 
d="M440 449h-157v-449h-89v449h-157v73h403v-73z" />
    <glyph glyph-name="tbar.sc" horiz-adv-x="491" 
d="M290 449v-161h104v-58h-104v-230h-89v230h-104v58h104v161h-157v73h403v-73h-157z" />
    <glyph glyph-name="tcaron.sc" horiz-adv-x="477" 
d="M440 449h-157v-449h-89v449h-157v73h403v-73zM394 752l-116 -147h-79l-115 147h75l80 -94l79 94h76z" />
    <glyph glyph-name="uni0163.sc" horiz-adv-x="477" 
d="M274 0v-5q27 -20 44.5 -43.5t17.5 -55.5q0 -40 -27 -62.5t-74 -22.5q-68 0 -106 53l37 34q13 -15 26.5 -23t30.5 -8q21 0 32 11t11 30q0 50 -53 92h-19v449h-157v73h403v-73h-157v-449h-9z" />
    <glyph glyph-name="uni021B.sc" horiz-adv-x="477" 
d="M440 449h-157v-449h-89v449h-157v73h403v-73zM279 -64.5q15 -17.5 15 -48.5q0 -33 -18.5 -68.5t-46.5 -64.5l-32 23q18 20 31 41.5t16 36.5q-2 -1 -8 -1q-23 0 -37 13t-14 35t14.5 36.5t37.5 14.5q27 0 42 -17.5z" />
    <glyph glyph-name="thorn.sc" horiz-adv-x="512" 
d="M408.5 388.5q53.5 -41.5 53.5 -117.5q0 -77 -53.5 -119.5t-140.5 -42.5h-94v-109h-88v522h88v-92h94q87 0 140.5 -41.5zM371 270q0 88 -106 88h-91v-180h91q106 0 106 92z" />
    <glyph glyph-name="u.sc" horiz-adv-x="558" 
d="M134 36q-54 46 -54 132v354h90v-341q0 -59 27.5 -88t83.5 -29q113 0 113 117v341h84v-354q0 -87 -53.5 -132.5t-145.5 -45.5q-91 0 -145 46z" />
    <glyph glyph-name="uacute.sc" horiz-adv-x="558" 
d="M134 36q-54 46 -54 132v354h90v-341q0 -59 27.5 -88t83.5 -29q113 0 113 117v341h84v-354q0 -87 -53.5 -132.5t-145.5 -45.5q-91 0 -145 46zM329 771h96l-119 -166h-73z" />
    <glyph glyph-name="ubreve.sc" horiz-adv-x="558" 
d="M134 36q-54 46 -54 132v354h90v-341q0 -59 27.5 -88t83.5 -29q113 0 113 117v341h84v-354q0 -87 -53.5 -132.5t-145.5 -45.5q-91 0 -145 46zM180.5 638.5q-39.5 37.5 -45.5 107.5h61q13 -84 86 -84q32 0 55 19.5t30 64.5h61q-6 -71 -45 -108t-101 -37t-101.5 37.5z" />
    <glyph glyph-name="uni01D4.sc" horiz-adv-x="558" 
d="M134 36q-54 46 -54 132v354h90v-341q0 -59 27.5 -88t83.5 -29q113 0 113 117v341h84v-354q0 -87 -53.5 -132.5t-145.5 -45.5q-91 0 -145 46zM437 752l-116 -147h-79l-115 147h75l80 -94l79 94h76z" />
    <glyph glyph-name="ucircumflex.sc" horiz-adv-x="558" 
d="M134 36q-54 46 -54 132v354h90v-341q0 -59 27.5 -88t83.5 -29q113 0 113 117v341h84v-354q0 -87 -53.5 -132.5t-145.5 -45.5q-91 0 -145 46zM361 605l-79 94l-80 -94h-75l115 147h79l116 -147h-76z" />
    <glyph glyph-name="udieresis.sc" horiz-adv-x="558" 
d="M134 36q-54 46 -54 132v354h90v-341q0 -59 27.5 -88t83.5 -29q113 0 113 117v341h84v-354q0 -87 -53.5 -132.5t-145.5 -45.5q-91 0 -145 46zM141.5 629q-16.5 16 -16.5 41q0 26 16 42.5t42 16.5t42 -16.5t16 -42.5q0 -25 -16 -41t-42 -16q-25 0 -41.5 16zM337.5 629
q-16.5 16 -16.5 41q0 26 16 42.5t42 16.5t42 -16.5t16 -42.5q0 -25 -16 -41t-42 -16q-25 0 -41.5 16z" />
    <glyph glyph-name="uni01D8.sc" horiz-adv-x="558" 
d="M134 36q-54 46 -54 132v354h90v-341q0 -59 27.5 -88t83.5 -29q113 0 113 117v341h84v-354q0 -87 -53.5 -132.5t-145.5 -45.5q-91 0 -145 46zM332 909h96l-119 -166h-73zM146.5 603q-15.5 15 -15.5 38q0 24 15.5 39t39.5 15t39.5 -15t15.5 -39q0 -23 -15.5 -38t-39.5 -15
t-39.5 15zM337 603q-15 15 -15 38q0 24 15 39t39 15t40 -15t16 -39q0 -23 -16 -38t-40 -15t-39 15z" />
    <glyph glyph-name="uni01DA.sc" horiz-adv-x="558" 
d="M134 36q-54 46 -54 132v354h90v-341q0 -59 27.5 -88t83.5 -29q113 0 113 117v341h84v-354q0 -87 -53.5 -132.5t-145.5 -45.5q-91 0 -145 46zM321 743h-80l-115 147h75l80 -93l79 93h76zM225.5 680q15.5 -15 15.5 -39q0 -23 -15.5 -38t-39.5 -15t-39.5 15t-15.5 38
q0 24 15.5 39t39.5 15t39.5 -15zM415.5 680q15.5 -15 15.5 -39q0 -23 -15.5 -38t-39.5 -15t-39.5 15t-15.5 38q0 24 15.5 39t39.5 15t39.5 -15z" />
    <glyph glyph-name="uni01DC.sc" horiz-adv-x="558" 
d="M134 36q-54 46 -54 132v354h90v-341q0 -59 27.5 -88t83.5 -29q113 0 113 117v341h84v-354q0 -87 -53.5 -132.5t-145.5 -45.5q-91 0 -145 46zM257 743l-119 166h96l96 -166h-73zM146.5 603q-15.5 15 -15.5 38q0 24 15.5 39t39.5 15t39.5 -15t15.5 -39q0 -23 -15.5 -38
t-39.5 -15t-39.5 15zM337 603q-15 15 -15 38q0 24 15 39t39 15t40 -15t16 -39q0 -23 -16 -38t-40 -15t-39 15z" />
    <glyph glyph-name="uni01D6.sc" horiz-adv-x="558" 
d="M134 36q-54 46 -54 132v354h90v-341q0 -59 27.5 -88t83.5 -29q113 0 113 117v341h84v-354q0 -87 -53.5 -132.5t-145.5 -45.5q-91 0 -145 46zM132 831h299v-66h-299v66zM146.5 603q-15.5 15 -15.5 38q0 24 15.5 39t39.5 15q25 0 40 -15t15 -39q0 -23 -15 -38t-40 -15
q-24 0 -39.5 15zM337.5 603q-15.5 15 -15.5 38q0 24 15.5 39t39.5 15t39.5 -15t15.5 -39q0 -23 -15.5 -38t-39.5 -15t-39.5 15z" />
    <glyph glyph-name="ugrave.sc" horiz-adv-x="558" 
d="M134 36q-54 46 -54 132v354h90v-341q0 -59 27.5 -88t83.5 -29q113 0 113 117v341h84v-354q0 -87 -53.5 -132.5t-145.5 -45.5q-91 0 -145 46zM256 605l-119 166h96l96 -166h-73z" />
    <glyph glyph-name="uhungarumlaut.sc" horiz-adv-x="558" 
d="M134 36q-54 46 -54 132v354h90v-341q0 -59 27.5 -88t83.5 -29q113 0 113 117v341h84v-354q0 -87 -53.5 -132.5t-145.5 -45.5q-91 0 -145 46zM244 752h89l-105 -147h-76zM415 752h96l-116 -147h-73z" />
    <glyph glyph-name="umacron.sc" horiz-adv-x="558" 
d="M134 36q-54 46 -54 132v354h90v-341q0 -59 27.5 -88t83.5 -29q113 0 113 117v341h84v-354q0 -87 -53.5 -132.5t-145.5 -45.5q-91 0 -145 46zM132 694h299v-66h-299v66z" />
    <glyph glyph-name="uogonek.sc" horiz-adv-x="558" 
d="M335 -35q-19 -23 -19 -49q0 -18 11.5 -29.5t31.5 -11.5q29 0 56 31l40 -40q-40 -56 -112 -56q-50 0 -79 24t-29 65q0 47 50 87v4h-6q-91 0 -145 46t-54 132v354h90v-341q0 -59 27.5 -88t83.5 -29q113 0 113 117v341h84v-354q0 -54 -21.5 -93t-61.5 -60q-41 -27 -60 -50z
" />
    <glyph glyph-name="uring.sc" horiz-adv-x="558" 
d="M134 36q-54 46 -54 132v354h90v-341q0 -59 27.5 -88t83.5 -29q113 0 113 117v341h84v-354q0 -87 -53.5 -132.5t-145.5 -45.5q-91 0 -145 46zM198.5 618q-32.5 30 -32.5 74q0 45 32 75t82 30q51 0 83.5 -30t32.5 -75q0 -44 -33 -74t-83 -30q-49 0 -81.5 30zM321.5 652
q16.5 16 16.5 40t-16 40.5t-42 16.5q-25 0 -40.5 -16.5t-15.5 -40.5q0 -23 16 -39.5t40 -16.5q25 0 41.5 16z" />
    <glyph glyph-name="utilde.sc" horiz-adv-x="558" 
d="M134 36q-54 46 -54 132v354h90v-341q0 -59 27.5 -88t83.5 -29q113 0 113 117v341h84v-354q0 -87 -53.5 -132.5t-145.5 -45.5q-91 0 -145 46zM297 616q-17 11 -37 32q-11 13 -20 19.5t-19 6.5q-32 0 -36 -64h-59q3 73 30.5 102.5t64.5 29.5q26 0 42.5 -11t34.5 -31
q13 -14 22 -21t20 -7q14 0 23 13.5t13 50.5h59q-3 -73 -31 -102t-64 -29q-26 0 -43 11z" />
    <glyph glyph-name="v.sc" horiz-adv-x="518" 
d="M260 92h4q8 35 16 60l121 370h89l-183 -522h-93l-184 522h94l120 -369q10 -34 16 -61z" />
    <glyph glyph-name="w.sc" horiz-adv-x="768" 
d="M540 88h4q4 25 14 66l84 368h91l-139 -522h-98l-96 354q-9 32 -13 70h-4q-4 -36 -14 -69l-98 -355h-97l-139 522h93l86 -368q10 -46 13 -67h4q4 37 13 67l101 368h80l101 -369q8 -29 14 -65z" />
    <glyph glyph-name="wacute.sc" horiz-adv-x="768" 
d="M540 88h4q4 25 14 66l84 368h91l-139 -522h-98l-96 354q-9 32 -13 70h-4q-4 -36 -14 -69l-98 -355h-97l-139 522h93l86 -368q10 -46 13 -67h4q4 37 13 67l101 368h80l101 -369q8 -29 14 -65zM433 772h96l-119 -166h-73z" />
    <glyph glyph-name="wcircumflex.sc" horiz-adv-x="768" 
d="M540 88h4q4 25 14 66l84 368h91l-139 -522h-98l-96 354q-9 32 -13 70h-4q-4 -36 -14 -69l-98 -355h-97l-139 522h93l86 -368q10 -46 13 -67h4q4 37 13 67l101 368h80l101 -369q8 -29 14 -65zM464 606l-79 94l-80 -94h-75l115 147h79l116 -147h-76z" />
    <glyph glyph-name="wdieresis.sc" horiz-adv-x="768" 
d="M540 88h4q4 25 14 66l84 368h91l-139 -522h-98l-96 354q-9 32 -13 70h-4q-4 -36 -14 -69l-98 -355h-97l-139 522h93l86 -368q10 -46 13 -67h4q4 37 13 67l101 368h80l101 -369q8 -29 14 -65zM245.5 630q-16.5 16 -16.5 41q0 26 16 42.5t42 16.5t42 -16.5t16 -42.5
q0 -25 -16 -41t-42 -16q-25 0 -41.5 16zM441.5 630q-16.5 16 -16.5 41q0 26 16 42.5t42 16.5t42 -16.5t16 -42.5q0 -25 -16 -41t-42 -16q-25 0 -41.5 16z" />
    <glyph glyph-name="wgrave.sc" horiz-adv-x="768" 
d="M540 88h4q4 25 14 66l84 368h91l-139 -522h-98l-96 354q-9 32 -13 70h-4q-4 -36 -14 -69l-98 -355h-97l-139 522h93l86 -368q10 -46 13 -67h4q4 37 13 67l101 368h80l101 -369q8 -29 14 -65zM360 606l-119 166h96l96 -166h-73z" />
    <glyph glyph-name="x.sc" horiz-adv-x="505" 
d="M479 0h-101l-101 169q-12 20 -22 41h-4q-11 -20 -24 -40l-108 -170h-93l172 264l-160 258h94l93 -154q18 -32 27 -50h4q18 36 27 51l97 153h90l-164 -253z" />
    <glyph glyph-name="y.sc" horiz-adv-x="518" 
d="M305 238v-238h-88v230l-195 292h103l111 -179q12 -19 23 -42h4q5 8 10.5 18t13.5 22l113 181h96z" />
    <glyph glyph-name="yacute.sc" horiz-adv-x="518" 
d="M305 238v-238h-88v230l-195 292h103l111 -179q12 -19 23 -42h4q5 8 10.5 18t13.5 22l113 181h96zM310 772h96l-119 -166h-73z" />
    <glyph glyph-name="ycircumflex.sc" horiz-adv-x="518" 
d="M305 238v-238h-88v230l-195 292h103l111 -179q12 -19 23 -42h4q5 8 10.5 18t13.5 22l113 181h96zM341 606l-79 94l-80 -94h-75l115 147h79l116 -147h-76z" />
    <glyph glyph-name="ydieresis.sc" horiz-adv-x="518" 
d="M305 238v-238h-88v230l-195 292h103l111 -179q12 -19 23 -42h4q5 8 10.5 18t13.5 22l113 181h96zM122.5 630q-16.5 16 -16.5 41q0 26 16 42.5t42 16.5t42 -16.5t16 -42.5q0 -25 -16 -41t-42 -16q-25 0 -41.5 16zM318.5 630q-16.5 16 -16.5 41q0 26 16 42.5t42 16.5
t42 -16.5t16 -42.5q0 -25 -16 -41t-42 -16q-25 0 -41.5 16z" />
    <glyph glyph-name="ygrave.sc" horiz-adv-x="518" 
d="M305 238v-238h-88v230l-195 292h103l111 -179q12 -19 23 -42h4q5 8 10.5 18t13.5 22l113 181h96zM237 606l-119 166h96l96 -166h-73z" />
    <glyph glyph-name="uni0233.sc" horiz-adv-x="518" 
d="M305 238v-238h-88v230l-195 292h103l111 -179q12 -19 23 -42h4q5 8 10.5 18t13.5 22l113 181h96zM113 695h299v-66h-299v66z" />
    <glyph glyph-name="uni1EF9.sc" horiz-adv-x="518" 
d="M305 238v-238h-88v230l-195 292h103l111 -179q12 -19 23 -42h4q5 8 10.5 18t13.5 22l113 181h96zM278 617q-17 11 -37 32q-11 13 -20 19.5t-19 6.5q-32 0 -36 -64h-59q3 73 30.5 102.5t64.5 29.5q26 0 42.5 -11t34.5 -31q13 -14 22 -21t20 -7q14 0 23 13.5t13 50.5h59
q-3 -73 -31 -102t-64 -29q-26 0 -43 11z" />
    <glyph glyph-name="z.sc" horiz-adv-x="471" 
d="M422 71v-71h-376v77l276 373h-264v72h363v-77l-278 -374h279z" />
    <glyph glyph-name="zacute.sc" horiz-adv-x="471" 
d="M422 71v-71h-376v77l276 373h-264v72h363v-77l-278 -374h279zM284 771h96l-119 -166h-73z" />
    <glyph glyph-name="zcaron.sc" horiz-adv-x="471" 
d="M422 71v-71h-376v77l276 373h-264v72h363v-77l-278 -374h279zM392 752l-116 -147h-79l-115 147h75l80 -94l79 94h76z" />
    <glyph glyph-name="zdotaccent.sc" horiz-adv-x="471" 
d="M422 71v-71h-376v77l276 373h-264v72h363v-77l-278 -374h279zM194.5 633q-16.5 16 -16.5 41t16.5 41t42.5 16q25 0 41.5 -16t16.5 -41t-16 -41t-42 -16t-42.5 16z" />
    <glyph glyph-name="uni01F1.c2sc" horiz-adv-x="1039" 
d="M396 492.5q59 -29.5 92.5 -88.5t33.5 -143t-33.5 -143t-92.5 -88.5t-136 -29.5h-174v522h174q77 0 136 -29.5zM383 120.5q48 47.5 48 140.5t-47.5 140t-130.5 47h-78v-375h78q82 0 130 47.5zM991 71v-71h-376v77l276 373h-264v72h363v-77l-278 -374h279z" />
    <glyph glyph-name="uni01C4.c2sc" horiz-adv-x="1039" 
d="M396 492.5q59 -29.5 92.5 -88.5t33.5 -143t-33.5 -143t-92.5 -88.5t-136 -29.5h-174v522h174q77 0 136 -29.5zM383 120.5q48 47.5 48 140.5t-47.5 140t-130.5 47h-78v-375h78q82 0 130 47.5zM991 71v-71h-376v77l276 373h-264v72h363v-77l-278 -374h279zM961 752
l-116 -147h-79l-115 147h75l80 -94l79 94h76z" />
    <glyph glyph-name="uni01F2.c2sc" horiz-adv-x="1039" 
d="M396 492.5q59 -29.5 92.5 -88.5t33.5 -143t-33.5 -143t-92.5 -88.5t-136 -29.5h-174v522h174q77 0 136 -29.5zM383 120.5q48 47.5 48 140.5t-47.5 140t-130.5 47h-78v-375h78q82 0 130 47.5zM991 71v-71h-376v77l276 373h-264v72h363v-77l-278 -374h279z" />
    <glyph glyph-name="uni01C5.c2sc" horiz-adv-x="1039" 
d="M396 492.5q59 -29.5 92.5 -88.5t33.5 -143t-33.5 -143t-92.5 -88.5t-136 -29.5h-174v522h174q77 0 136 -29.5zM383 120.5q48 47.5 48 140.5t-47.5 140t-130.5 47h-78v-375h78q82 0 130 47.5zM991 71v-71h-376v77l276 373h-264v72h363v-77l-278 -374h279zM961 752
l-116 -147h-79l-115 147h75l80 -94l79 94h76z" />
    <glyph glyph-name="uni1E9E.c2sc" horiz-adv-x="551" 
d="M469.5 220.5q31.5 -35.5 31.5 -85.5q0 -68 -45.5 -106.5t-119.5 -38.5q-59 0 -108 28l25 64q37 -22 75 -22q39 0 61 20t22 53q0 31 -21.5 53t-56.5 40l-61 30v42l106 136q-47 28 -94 28q-116 0 -116 -145v-317h-88v327q0 97 49.5 151t154.5 54q56 0 106.5 -17.5
t91.5 -51.5l-123 -164l28 -15q51 -28 82.5 -63.5z" />
    <glyph glyph-name="Idotaccent.c2sc" horiz-adv-x="325" 
d="M207 454v-386h63v-68h-215v68h63v386h-63v68h215v-68h-63zM120.5 633q-16.5 16 -16.5 41t16.5 41t42.5 16q25 0 41.5 -16t16.5 -41t-16 -41t-42 -16t-42.5 16z" />
    <glyph glyph-name="uni01C7.c2sc" horiz-adv-x="761" 
d="M409 73v-73h-323v522h89v-449h234zM460 -83v73q24 -8 56 -8q71 0 71 70v470h89v-480q0 -65 -38.5 -99t-102.5 -34q-43 0 -75 8z" />
    <glyph glyph-name="L_periodcentered.latnCAT.c2sc" horiz-adv-x="459" 
d="M175 73h234v-73h-323v522h89v-449zM318 254.5q-15 15.5 -15 39.5q0 25 15 40t39 15q25 0 40 -15t15 -40q0 -24 -15 -39.5t-40 -15.5q-24 0 -39 15.5z" />
    <glyph glyph-name="Ldot.c2sc" horiz-adv-x="459" 
d="M175 73h234v-73h-323v522h89v-449zM318 254.5q-15 15.5 -15 39.5q0 25 15 40t39 15q25 0 40 -15t15 -40q0 -24 -15 -39.5t-40 -15.5q-24 0 -39 15.5z" />
    <glyph glyph-name="uni01C8.c2sc" horiz-adv-x="761" 
d="M409 73v-73h-323v522h89v-449h234zM460 -83v73q24 -8 56 -8q71 0 71 70v470h89v-480q0 -65 -38.5 -99t-102.5 -34q-43 0 -75 8z" />
    <glyph glyph-name="uni01CA.c2sc" horiz-adv-x="897" 
d="M86 522h106l188 -347q18 -32 33 -70h4l-1 27q-2 34 -2 47v343h84v-522h-105l-189 347q-21 40 -33 72h-4q3 -34 3 -77v-342h-84v522zM596 -83v73q24 -8 56 -8q71 0 71 70v470h89v-480q0 -65 -38.5 -99t-102.5 -34q-43 0 -75 8z" />
    <glyph glyph-name="uni01CB.c2sc" horiz-adv-x="897" 
d="M86 522h106l188 -347q18 -32 33 -70h4l-1 27q-2 34 -2 47v343h84v-522h-105l-189 347q-21 40 -33 72h-4q3 -34 3 -77v-342h-84v522zM596 -83v73q24 -8 56 -8q71 0 71 70v470h89v-480q0 -65 -38.5 -99t-102.5 -34q-43 0 -75 8z" />
    <glyph glyph-name="fi.sc" horiz-adv-x="785" 
d="M175 449v-156h217v-71h-217v-222h-89v522h325v-73h-236zM666 454v-386h63v-68h-215v68h63v386h-63v68h215v-68h-63z" />
    <glyph glyph-name="fl.sc" horiz-adv-x="908" 
d="M175 449v-156h217v-71h-217v-222h-89v522h325v-73h-236zM869 73v-73h-323v522h89v-449h234z" />
    <glyph glyph-name="uni20BC.tf" 
d="M492 381.5q14 -65.5 14 -185.5v-196h-84v182q0 110 -8.5 165.5t-29.5 89.5q-30 49 -80 60v-457h-69v456q-48 -11 -78 -59q-20 -35 -29 -91.5t-9 -163.5v-182h-84v196q0 119 14 184t45 108q50 70 139 83v109h73v-109q89 -12 142 -83q30 -41 44 -106.5z" />
    <glyph glyph-name="uni20AA.tf" 
d="M313.5 482q29.5 -12 42.5 -46t13 -102v-149h-65v125q0 56 -5 78.5t-23.5 31.5t-64.5 9h-111v-429h-70v494h197q57 0 86.5 -12zM175 0v313h64v-248h17q76 0 115 16.5t57.5 67t18.5 153.5v192h70v-191q0 -126 -27.5 -191t-86 -88.5t-164.5 -23.5h-64z" />
    <glyph glyph-name="uni20A9.tf" 
d="M482 397l-11 -89h66v-64h-75l-32 -244h-85l-32 244h-81l-32 -244h-86l-33 244h-76v64h68l-12 89h-56v63h47l-28 208h80l21 -208h80l26 208h81l28 -208h80l20 208h78l-27 -208h46v-63h-55zM264 492l-4 -32h24l-4 32q-2 15 -4 45l-2 24h-4zM140 308h45l12 89h-66zM304 308
l-11 89h-41l-12 -89h64zM414 397h-66l12 -89h46zM168 171l9 73h-31l7 -71l5 -62h4zM400 244h-32l10 -73l7 -59h4l4 60z" />
    <glyph glyph-name="uni0E3F.c2sc" horiz-adv-x="507" 
d="M396 40q-47 -38 -120 -40v-69h-60v69h-138v522h138v63h60v-63q71 -5 109 -39.5t38 -94.5q0 -41 -20.5 -68.5t-57.5 -41.5v-3q46 -14 72 -46t26 -80q0 -71 -47 -109zM163 453v-155h53v155h-53zM322 430.5q-16 17.5 -46 21.5v-151q30 5 46 24.5t16 51.5q0 36 -16 53.5z
M216 68v170h-53v-170h53zM355 153q0 38 -21 58.5t-58 25.5v-168q79 9 79 84z" />
    <glyph glyph-name="uni20BF.c2sc" horiz-adv-x="506" 
d="M407 52q-35 -37 -94 -48v-73h-58v69h-43v-69h-59v69h-76v522h76v63h59v-63h43v63h58v-69q53 -11 81.5 -44t28.5 -84q0 -41 -21 -68.5t-58 -41.5v-3q46 -14 72 -46t26 -80q0 -60 -35 -97zM316.5 435q-20.5 18 -60.5 18h-95v-155h85q43 0 67 19.5t24 58.5q0 41 -20.5 59z
M354 153q0 43 -27 64t-74 21h-92v-170h95q98 0 98 85z" />
    <glyph glyph-name="uni20B5.c2sc" horiz-adv-x="494" 
d="M387.5 42.5q-40.5 -34.5 -96.5 -40.5v-71h-60v71q-83 11 -130.5 78t-47.5 179q0 115 47.5 182.5t130.5 78.5v65h60v-65q55 -7 93.5 -39t56.5 -90l-69 -28q-23 70 -81 83v-370q63 15 87 94l70 -29q-20 -64 -60.5 -98.5zM165 135.5q24 -46.5 66 -58.5v368
q-42 -12 -66 -58.5t-24 -126.5q0 -78 24 -124.5z" />
    <glyph glyph-name="cent.c2sc" horiz-adv-x="443" 
d="M341 92.5q-33 -22.5 -74 -28.5v-64h-60v64q-70 11 -111.5 63.5t-41.5 134.5q0 81 42 134t111 64v62h60v-61q40 -6 72 -27.5t51 -60.5l-66 -31q-19 40 -57 51v-260q40 12 60 55l65 -32q-18 -41 -51 -63.5zM158.5 180q17.5 -32 48.5 -44v254q-31 -12 -48.5 -45t-17.5 -83
t17.5 -82z" />
    <glyph glyph-name="colonmonetary.c2sc" horiz-adv-x="497" 
d="M305 3l-10 -72h-53l9 69q-28 2 -52 10l-10 -79h-53l13 102q-45 31 -70 89t-25 137q0 107 42.5 174t116.5 84l9 68h53l-8 -63q23 0 53 -7l9 70h52l-11 -92q51 -32 73 -102l-70 -28q-5 16 -16 35l-42 -314q44 20 64 86l70 -29q-39 -119 -144 -138zM261 73l49 368
q-22 8 -46 8h-7l-48 -362q25 -14 52 -14zM164 141l38 288q-60 -42 -60 -169q0 -72 22 -119z" />
    <glyph glyph-name="currency.c2sc" horiz-adv-x="538" 
d="M413 164l67 -68l-50 -48l-65 68q-43 -27 -98 -27t-95 26l-64 -67l-50 48l65 66q-30 46 -30 104q0 56 28 100l-64 67l50 48l64 -65q42 26 96 26q59 0 99 -28l65 67l49 -47l-66 -68q28 -45 28 -100q0 -58 -29 -102zM343.5 188.5q27.5 31.5 27.5 77.5t-27.5 77.5t-76.5 31.5
t-76.5 -31.5t-27.5 -77.5q0 -47 27.5 -78t76.5 -31t76.5 31.5z" />
    <glyph glyph-name="dollar.c2sc" horiz-adv-x="464" 
d="M377 47q-41 -36 -109 -45v-71h-60v70q-48 4 -90.5 23t-75.5 52l46 54q25 -25 56 -39.5t64 -18.5v164l-28 11q-117 41 -117 137q0 56 40 93.5t105 43.5v64h60v-65q78 -10 135 -61l-43 -57q-40 37 -92 46v-154l22 -8q56 -20 92 -52.5t36 -89.5q0 -61 -41 -97zM161.5 346
q15.5 -16 46.5 -29v132q-30 -6 -46 -23t-16 -39q0 -25 15.5 -41zM316 95.5q17 16.5 17 42.5q0 27 -16 44t-49 32v-141q31 6 48 22.5z" />
    <glyph glyph-name="dong.c2sc" horiz-adv-x="470" 
d="M417 485v-52h-60v-344h-73v48h-4q-26 -54 -91 -54q-56 0 -93.5 41t-37.5 112q0 72 36.5 113t91.5 41q63 0 92 -50h3v93h-122v52h122v49h76v-49h60zM265 163.5q20 26.5 20 73.5q0 46 -20 72.5t-54 26.5t-54.5 -26.5t-20.5 -73.5t20.5 -73t54.5 -26t54 26.5zM61 52h331v-52
h-331v52z" />
    <glyph glyph-name="Euro.c2sc" horiz-adv-x="532" 
d="M482 118q-44 -127 -177 -127q-74 0 -126.5 48.5t-69.5 140.5h-60v52h54q-1 9 -1 29q0 24 1 35h-54v51h61q17 90 70 137.5t125 47.5q63 0 108 -33t64 -93l-70 -22q-15 40 -39.5 58t-59.5 18q-41 0 -70.5 -28.5t-41.5 -84.5h147v-51h-154q-1 -11 -1 -35q0 -20 1 -29h154
v-52h-148q12 -59 42 -88.5t72 -29.5q74 0 102 82z" />
    <glyph glyph-name="uni20B2.c2sc" horiz-adv-x="512" 
d="M453 59q-69 -54 -160 -58v-70h-60v72q-83 12 -129.5 78t-46.5 180q0 113 46.5 180t129.5 79v65h60v-64q111 -9 158 -108l-65 -34q-30 61 -93 69v-376q46 3 81 26v105h-51v68h130v-212zM233 79v364q-44 -13 -67 -58.5t-23 -123.5q0 -153 90 -182z" />
    <glyph glyph-name="uni20B4.c2sc" horiz-adv-x="521" 
d="M321 270q-14 -8 -28 -16.5t-28 -17.5v-4h200v-52h-265q-20 -23 -20 -54q0 -30 23.5 -47.5t67.5 -17.5q76 0 134 58l44 -53q-36 -36 -83 -56t-100 -20q-78 0 -124 35t-46 100q0 32 14 55h-56v52h95q50 34 100 59v5h-195v51h259q25 23 25 52q0 28 -20.5 44.5t-57.5 16.5
q-64 0 -119 -49l-42 57q69 64 168 64q71 0 113 -35t42 -92q0 -33 -19 -58h62v-51h-101z" />
    <glyph glyph-name="uni20AD.c2sc" horiz-adv-x="521" 
d="M195 244h-16v-244h-84v244h-48v58h48v220h84v-220h19l165 220h94l-176 -220h150v-58h-143l193 -244h-101z" />
    <glyph glyph-name="uni20BA.c2sc" horiz-adv-x="496" 
d="M125 191l-76 -26v55l76 26v68l-76 -26v55l76 25v154h84v-129l110 36v-54l-110 -37v-68l110 37v-54l-110 -37v-137q67 4 109.5 38.5t62.5 100.5l78 -30q-31 -94 -99.5 -141t-185.5 -47h-49v191z" />
    <glyph glyph-name="uni20BC.c2sc" horiz-adv-x="666" 
d="M549 341.5q65 -92.5 65 -268.5v-73h-84v67q0 140 -41.5 216.5t-116.5 91.5v-344h-79v344q-76 -15 -116.5 -91.5t-40.5 -216.5v-67h-84v73q0 176 65 268t176 106v85h79v-85q112 -13 177 -105.5z" />
    <glyph glyph-name="uni20A6.c2sc" horiz-adv-x="565" 
d="M453 295v-65h56v-51h-56v-179h-110l-70 179h-86v-179h-74v179h-57v51h57v65h-57v51h57v176h109l68 -176h88v176h75v-176h56v-51h-56zM187 346h21q-8 25 -19 80h-4q2 -52 2 -80zM253 230l-26 65h-40v-65h66zM378 295h-68l26 -65h42v65zM378 179h-23q13 -46 22 -82h4
q-3 45 -3 82z" />
    <glyph glyph-name="uni20B1.c2sc" horiz-adv-x="556" 
d="M507 367h-54q1 -6 1 -20q0 -16 -1 -23h54v-51h-65q-18 -51 -62.5 -77.5t-106.5 -26.5h-80v-169h-85v273h-55v51h55v43h-55v52h55v103h165q63 0 107 -26.5t62 -76.5h65v-52zM193 463v-44h160q-23 44 -88 44h-72zM367 367h-174v-43h174q1 7 1 21q0 15 -1 22zM355 273h-162
v-47h72q67 0 90 47z" />
    <glyph glyph-name="uni20BD.c2sc" horiz-adv-x="457" 
d="M166 217v-62h163v-58h-163v-97h-84v97h-55v58h55v62h-55v65h55v240h170q85 0 136.5 -38.5t51.5 -114.5t-50 -114t-138 -38h-86zM166 457v-175h79q53 0 80.5 22.5t27.5 64.5q0 43 -26.5 65.5t-77.5 22.5h-83z" />
    <glyph glyph-name="uni20B9.c2sc" horiz-adv-x="457" 
d="M280 454v-2q49 -24 63 -71h79v-58h-75q-9 -101 -108 -134l142 -189h-104l-127 172q-36 -2 -58 -2h-23v68h24q80 0 121.5 19t48.5 66h-229v58h226q-20 73 -152 73h-74v68h388v-68h-142z" />
    <glyph glyph-name="uni20AA.c2sc" horiz-adv-x="678" 
d="M379 380.5q31 -8.5 47 -36t16 -84.5v-102h-68v84q0 34 -5 49t-22 21t-56 6h-134v-318h-80v389h213q58 0 89 -8.5zM234 0v236h68v-165h41q66 0 105 13.5t59 53t20 116.5v135h80v-132q0 -96 -25 -151t-85 -80.5t-167 -25.5h-96z" />
    </font>
</defs>
</svg>
